Snoop Lion (Snoop Dogg) - Reincarnated (2013) Deluxe Edition [MP3|320 кб/с]<Hip-Hop, Reggae>

 

Создавать темы 15-Дек-2014 22:56

-Snoop Lion (Snoop Dogg) - Reincarnated [Deluxe Edition] (2013)- Год: 2013
Жанр: Hip-Hop, Reggae
Продолжительность: 00:57:37
Кодек: MP3
Битрейт: 320 кб/с
Тип битрейта: CBR
Треклист:
01. Rebel Way (04:44)
02. Here Comes The King (Feat. Angela Hunte) (03:24)
03. Lighters Up (Feat. Mavado And Popcaan) (03:46)
04. So Long (Feat. Angela Hunte) (03:40)
05. Get Away (Feat. Angela Hunte) (03:27)
06. No Guns Allowed (Feat. Drake And Cori B) (03:31)
07. Fruit Juice (Feat. Mr. Vegas) (02:37)
08. Smoke The Weed (Feat. Collie Buddz) (03:28)
09. Tired Of Running (Feat. Akon) (04:10)
10. The Good Good (Feat. Iza) (03:54)
11. Torn Apart (Feat. Rita Ora) (03:30)
12. Ashtrays And Heartbreaks (Feat. Miley Cyrus) (04:6)
13. Boulevard (Feat. Jahdan Blakkamoore) (03:12)
14. Remedy (Feat. Busta Rhymes And Chris Brown) (03:0)
15. La La La (03:27)
16. Harder Times (Feat. Jahdan Blakkamoore) (03:33)

MediaInfo

Общее
Полное имя                               : D:\Торрент раздача\Snoop Lion  - Reincarnated (Deluxe Edition)\01. Rebel Way.mp3
Формат                                   : MPEG Audio
Размер файла                             : 10,9 Мбайт
Продолжительность                        : 4 м. 44 с.
Режим общего битрейта                    : Постоянный
Общий поток                              : 320 Кбит/сек
Альбом                                   : Reincarnated (Deluxe Edition)
Трек                                     : Rebel Way
Трек/Положение                           : 1
Исполнитель                              : Snoop Lion
Жанр                                     : Reggae / Hip-Hop
Дата записи                              : 2013
Библиотека кодирования                   : LAME3.99r
Обложка                                  : Yes
Тип обложки                              : Cover (front)
MIME-тип обложки                         : image/jpeg
Аудио
Формат                                   : MPEG Audio
Версия формата                           : Version 1
Профиль формата                          : Layer 3
Режим                                    : Joint stereo
Расширение режима                        : MS Stereo
Продолжительность                        : 4 м. 44 с.
Вид битрейта                             : Постоянный
Битрейт                                  : 320 Кбит/сек
Каналы                                   : 2 канала
Частота                                  : 44,1 КГц
Метод сжатия                             : С потерями
Размер потока                            : 10,8 Мбайт (100%)
Библиотека кодирования                   : LAME3.99r
Настройки программы                      : -m j -V 4 -q 3 -lowpass 20.5
Общее
Полное имя                               : D:\Торрент раздача\Snoop Lion  - Reincarnated (Deluxe Edition)\02. Here Comes The King (Feat. Angela Hunte).mp3
Формат                                   : MPEG Audio
Размер файла                             : 7,85 Мбайт
Продолжительность                        : 3 м. 24 с.
Режим общего битрейта                    : Постоянный
Общий поток                              : 320 Кбит/сек
Альбом                                   : Reincarnated (Deluxe Edition)
Трек                                     : Here Comes The King (Feat. Angela Hunte)
Трек/Положение                           : 2
Исполнитель                              : Snoop Lion
Жанр                                     : Reggae / Hip-Hop
Дата записи                              : 2013
Библиотека кодирования                   : LAME3.99r
Обложка                                  : Yes
Тип обложки                              : Cover (front)
MIME-тип обложки                         : image/jpeg
Аудио
Формат                                   : MPEG Audio
Версия формата                           : Version 1
Профиль формата                          : Layer 3
Режим                                    : Joint stereo
Продолжительность                        : 3 м. 24 с.
Вид битрейта                             : Постоянный
Битрейт                                  : 320 Кбит/сек
Каналы                                   : 2 канала
Частота                                  : 44,1 КГц
Метод сжатия                             : С потерями
Размер потока                            : 7,80 Мбайт (99%)
Библиотека кодирования                   : LAME3.99r
Настройки программы                      : -m j -V 4 -q 3 -lowpass 20.5
Общее
Полное имя                               : D:\Торрент раздача\Snoop Lion  - Reincarnated (Deluxe Edition)\03. Lighters Up (Feat. Mavado And Popcaan).mp3
Формат                                   : MPEG Audio
Размер файла                             : 8,70 Мбайт
Продолжительность                        : 3 м. 46 с.
Режим общего битрейта                    : Постоянный
Общий поток                              : 320 Кбит/сек
Альбом                                   : Reincarnated (Deluxe Edition)
Трек                                     : Lighters Up (Feat. Mavado And Popcaan)
Трек/Положение                           : 3
Исполнитель                              : Snoop Lion
Жанр                                     : Reggae / Hip-Hop
Дата записи                              : 2013
Библиотека кодирования                   : LAME3.99r
Обложка                                  : Yes
Тип обложки                              : Cover (front)
MIME-тип обложки                         : image/jpeg
Аудио
Формат                                   : MPEG Audio
Версия формата                           : Version 1
Профиль формата                          : Layer 3
Режим                                    : Joint stereo
Продолжительность                        : 3 м. 46 с.
Вид битрейта                             : Постоянный
Битрейт                                  : 320 Кбит/сек
Каналы                                   : 2 канала
Частота                                  : 44,1 КГц
Метод сжатия                             : С потерями
Размер потока                            : 8,65 Мбайт (99%)
Библиотека кодирования                   : LAME3.99r
Настройки программы                      : -m j -V 4 -q 3 -lowpass 20.5
Общее
Полное имя                               : D:\Торрент раздача\Snoop Lion  - Reincarnated (Deluxe Edition)\04. So Long (Feat. Angela Hunte).mp3
Формат                                   : MPEG Audio
Размер файла                             : 8,45 Мбайт
Продолжительность                        : 3 м. 40 с.
Режим общего битрейта                    : Постоянный
Общий поток                              : 320 Кбит/сек
Альбом                                   : Reincarnated (Deluxe Edition)
Трек                                     : So Long (Feat. Angela Hunte)
Трек/Положение                           : 4
Исполнитель                              : Snoop Lion
Жанр                                     : Reggae / Hip-Hop
Дата записи                              : 2013
Библиотека кодирования                   : LAME3.99r
Обложка                                  : Yes
Тип обложки                              : Cover (front)
MIME-тип обложки                         : image/jpeg
Аудио
Формат                                   : MPEG Audio
Версия формата                           : Version 1
Профиль формата                          : Layer 3
Режим                                    : Joint stereo
Продолжительность                        : 3 м. 40 с.
Вид битрейта                             : Постоянный
Битрейт                                  : 320 Кбит/сек
Каналы                                   : 2 канала
Частота                                  : 44,1 КГц
Метод сжатия                             : С потерями
Размер потока                            : 8,41 Мбайт (99%)
Библиотека кодирования                   : LAME3.99r
Настройки программы                      : -m j -V 4 -q 3 -lowpass 20.5
Общее
Полное имя                               : D:\Торрент раздача\Snoop Lion  - Reincarnated (Deluxe Edition)\05. Get Away (Feat. Angela Hunte).mp3
Формат                                   : MPEG Audio
Размер файла                             : 7,95 Мбайт
Продолжительность                        : 3 м. 27 с.
Режим общего битрейта                    : Постоянный
Общий поток                              : 320 Кбит/сек
Альбом                                   : Reincarnated (Deluxe Edition)
Трек                                     : Get Away (Feat. Angela Hunte)
Трек/Положение                           : 5
Исполнитель                              : Snoop Lion
Жанр                                     : Reggae / Hip-Hop
Дата записи                              : 2013
Библиотека кодирования                   : LAME3.99r
Обложка                                  : Yes
Тип обложки                              : Cover (front)
MIME-тип обложки                         : image/jpeg
Аудио
Формат                                   : MPEG Audio
Версия формата                           : Version 1
Профиль формата                          : Layer 3
Режим                                    : Joint stereo
Расширение режима                        : MS Stereo
Продолжительность                        : 3 м. 27 с.
Вид битрейта                             : Постоянный
Битрейт                                  : 320 Кбит/сек
Каналы                                   : 2 канала
Частота                                  : 44,1 КГц
Метод сжатия                             : С потерями
Размер потока                            : 7,91 Мбайт (99%)
Библиотека кодирования                   : LAME3.99r
Настройки программы                      : -m j -V 4 -q 3 -lowpass 20.5
Общее
Полное имя                               : D:\Торрент раздача\Snoop Lion  - Reincarnated (Deluxe Edition)\06. No Guns Allowed (Feat. Drake And Cori B).mp3
Формат                                   : MPEG Audio
Размер файла                             : 8,13 Мбайт
Продолжительность                        : 3 м. 31 с.
Режим общего битрейта                    : Постоянный
Общий поток                              : 320 Кбит/сек
Альбом                                   : Reincarnated (Deluxe Edition)
Трек                                     : No Guns Allowed (Feat. Drake And Cori B)
Трек/Положение                           : 6
Исполнитель                              : Snoop Lion
Жанр                                     : Reggae / Hip-Hop
Дата записи                              : 2013
Библиотека кодирования                   : LAME3.99r
Обложка                                  : Yes
Тип обложки                              : Cover (front)
MIME-тип обложки                         : image/jpeg
Аудио
Формат                                   : MPEG Audio
Версия формата                           : Version 1
Профиль формата                          : Layer 3
Режим                                    : Joint stereo
Продолжительность                        : 3 м. 32 с.
Вид битрейта                             : Постоянный
Битрейт                                  : 320 Кбит/сек
Каналы                                   : 2 канала
Частота                                  : 44,1 КГц
Метод сжатия                             : С потерями
Размер потока                            : 8,08 Мбайт (99%)
Библиотека кодирования                   : LAME3.99r
Настройки программы                      : -m j -V 4 -q 3 -lowpass 20.5
Общее
Полное имя                               : D:\Торрент раздача\Snoop Lion  - Reincarnated (Deluxe Edition)\07. Fruit Juice (Feat. Mr. Vegas).mp3
Формат                                   : MPEG Audio
Размер файла                             : 6,05 Мбайт
Продолжительность                        : 2 м. 37 с.
Режим общего битрейта                    : Постоянный
Общий поток                              : 320 Кбит/сек
Альбом                                   : Reincarnated (Deluxe Edition)
Трек                                     : Fruit Juice (Feat. Mr. Vegas)
Трек/Положение                           : 7
Исполнитель                              : Snoop Lion
Жанр                                     : Reggae / Hip-Hop
Дата записи                              : 2013
Библиотека кодирования                   : LAME3.99r
Обложка                                  : Yes
Тип обложки                              : Cover (front)
MIME-тип обложки                         : image/jpeg
Аудио
Формат                                   : MPEG Audio
Версия формата                           : Version 1
Профиль формата                          : Layer 3
Режим                                    : Joint stereo
Расширение режима                        : MS Stereo
Продолжительность                        : 2 м. 37 с.
Вид битрейта                             : Постоянный
Битрейт                                  : 320 Кбит/сек
Каналы                                   : 2 канала
Частота                                  : 44,1 КГц
Метод сжатия                             : С потерями
Размер потока                            : 6,01 Мбайт (99%)
Библиотека кодирования                   : LAME3.99r
Настройки программы                      : -m j -V 4 -q 3 -lowpass 20.5
Общее
Полное имя                               : D:\Торрент раздача\Snoop Lion  - Reincarnated (Deluxe Edition)\08. Smoke The Weed (Feat. Collie Buddz).mp3
Формат                                   : MPEG Audio
Размер файла                             : 8,02 Мбайт
Продолжительность                        : 3 м. 29 с.
Режим общего битрейта                    : Постоянный
Общий поток                              : 320 Кбит/сек
Альбом                                   : Reincarnated (Deluxe Edition)
Трек                                     : Smoke The Weed (Feat. Collie Buddz)
Трек/Положение                           : 8
Исполнитель                              : Snoop Lion
Жанр                                     : Reggae / Hip-Hop
Дата записи                              : 2013
Библиотека кодирования                   : LAME3.99r
Обложка                                  : Yes
Тип обложки                              : Cover (front)
MIME-тип обложки                         : image/jpeg
Аудио
Формат                                   : MPEG Audio
Версия формата                           : Version 1
Профиль формата                          : Layer 3
Режим                                    : Joint stereo
Расширение режима                        : MS Stereo
Продолжительность                        : 3 м. 29 с.
Вид битрейта                             : Постоянный
Битрейт                                  : 320 Кбит/сек
Каналы                                   : 2 канала
Частота                                  : 44,1 КГц
Метод сжатия                             : С потерями
Размер потока                            : 7,97 Мбайт (99%)
Библиотека кодирования                   : LAME3.99r
Настройки программы                      : -m j -V 4 -q 3 -lowpass 20.5
Общее
Полное имя                               : D:\Торрент раздача\Snoop Lion  - Reincarnated (Deluxe Edition)\09. Tired Of Running (Feat. Akon).mp3
Формат                                   : MPEG Audio
Размер файла                             : 9,59 Мбайт
Продолжительность                        : 4 м. 10 с.
Режим общего битрейта                    : Постоянный
Общий поток                              : 320 Кбит/сек
Альбом                                   : Reincarnated (Deluxe Edition)
Трек                                     : Tired Of Running (Feat. Akon)
Трек/Положение                           : 9
Исполнитель                              : Snoop Lion
Жанр                                     : Reggae / Hip-Hop
Дата записи                              : 2013
Библиотека кодирования                   : LAME3.99r
Обложка                                  : Yes
Тип обложки                              : Cover (front)
MIME-тип обложки                         : image/jpeg
Аудио
Формат                                   : MPEG Audio
Версия формата                           : Version 1
Профиль формата                          : Layer 3
Режим                                    : Joint stereo
Продолжительность                        : 4 м. 10 с.
Вид битрейта                             : Постоянный
Битрейт                                  : 320 Кбит/сек
Каналы                                   : 2 канала
Частота                                  : 44,1 КГц
Метод сжатия                             : С потерями
Размер потока                            : 9,55 Мбайт (100%)
Библиотека кодирования                   : LAME3.99r
Настройки программы                      : -m j -V 4 -q 3 -lowpass 20.5
Общее
Полное имя                               : D:\Торрент раздача\Snoop Lion  - Reincarnated (Deluxe Edition)\10. The Good Good (Feat. Iza).mp3
Формат                                   : MPEG Audio
Размер файла                             : 8,98 Мбайт
Продолжительность                        : 3 м. 54 с.
Режим общего битрейта                    : Постоянный
Общий поток                              : 320 Кбит/сек
Альбом                                   : Reincarnated (Deluxe Edition)
Трек                                     : The Good Good (Feat. Iza)
Трек/Положение                           : 10
Исполнитель                              : Snoop Lion
Жанр                                     : Reggae / Hip-Hop
Дата записи                              : 2013
Библиотека кодирования                   : LAME3.99r
Обложка                                  : Yes
Тип обложки                              : Cover (front)
MIME-тип обложки                         : image/jpeg
Аудио
Формат                                   : MPEG Audio
Версия формата                           : Version 1
Профиль формата                          : Layer 3
Режим                                    : Joint stereo
Продолжительность                        : 3 м. 54 с.
Вид битрейта                             : Постоянный
Битрейт                                  : 320 Кбит/сек
Каналы                                   : 2 канала
Частота                                  : 44,1 КГц
Метод сжатия                             : С потерями
Размер потока                            : 8,93 Мбайт (99%)
Библиотека кодирования                   : LAME3.99r
Настройки программы                      : -m j -V 4 -q 3 -lowpass 20.5
Общее
Полное имя                               : D:\Торрент раздача\Snoop Lion  - Reincarnated (Deluxe Edition)\11. Torn Apart (Feat. Rita Ora).mp3
Формат                                   : MPEG Audio
Размер файла                             : 8,07 Мбайт
Продолжительность                        : 3 м. 30 с.
Режим общего битрейта                    : Постоянный
Общий поток                              : 320 Кбит/сек
Альбом                                   : Reincarnated (Deluxe Edition)
Трек                                     : Torn Apart (Feat. Rita Ora)
Трек/Положение                           : 11
Исполнитель                              : Snoop Lion
Жанр                                     : Reggae / Hip-Hop
Дата записи                              : 2013
Библиотека кодирования                   : LAME3.99r
Обложка                                  : Yes
Тип обложки                              : Cover (front)
MIME-тип обложки                         : image/jpeg
Аудио
Формат                                   : MPEG Audio
Версия формата                           : Version 1
Профиль формата                          : Layer 3
Режим                                    : Joint stereo
Расширение режима                        : MS Stereo
Продолжительность                        : 3 м. 30 с.
Вид битрейта                             : Постоянный
Битрейт                                  : 320 Кбит/сек
Каналы                                   : 2 канала
Частота                                  : 44,1 КГц
Метод сжатия                             : С потерями
Размер потока                            : 8,03 Мбайт (99%)
Библиотека кодирования                   : LAME3.99r
Настройки программы                      : -m j -V 4 -q 3 -lowpass 20.5
Общее
Полное имя                               : D:\Торрент раздача\Snoop Lion  - Reincarnated (Deluxe Edition)\12. Ashtrays And Heartbreaks (Feat. Miley Cyrus).mp3
Формат                                   : MPEG Audio
Размер файла                             : 9,45 Мбайт
Продолжительность                        : 4 м. 6 с.
Режим общего битрейта                    : Постоянный
Общий поток                              : 320 Кбит/сек
Альбом                                   : Reincarnated (Deluxe Edition)
Трек                                     : Ashtrays And Heartbreaks (Feat. Miley Cyrus)
Трек/Положение                           : 12
Исполнитель                              : Snoop Lion
Жанр                                     : Reggae / Hip-Hop
Дата записи                              : 2013
Библиотека кодирования                   : LAME3.99r
Обложка                                  : Yes
Тип обложки                              : Cover (front)
MIME-тип обложки                         : image/jpeg
Аудио
Формат                                   : MPEG Audio
Версия формата                           : Version 1
Профиль формата                          : Layer 3
Режим                                    : Joint stereo
Продолжительность                        : 4 м. 6 с.
Вид битрейта                             : Постоянный
Битрейт                                  : 320 Кбит/сек
Каналы                                   : 2 канала
Частота                                  : 44,1 КГц
Метод сжатия                             : С потерями
Размер потока                            : 9,40 Мбайт (100%)
Библиотека кодирования                   : LAME3.99r
Настройки программы                      : -m j -V 4 -q 3 -lowpass 20.5
Общее
Полное имя                               : D:\Торрент раздача\Snoop Lion  - Reincarnated (Deluxe Edition)\13. Boulevard (Feat. Jahdan Blakkamoore).mp3
Формат                                   : MPEG Audio
Размер файла                             : 7,40 Мбайт
Продолжительность                        : 3 м. 12 с.
Режим общего битрейта                    : Постоянный
Общий поток                              : 320 Кбит/сек
Альбом                                   : Reincarnated (Deluxe Edition)
Трек                                     : Boulevard (Feat. Jahdan Blakkamoore)
Трек/Положение                           : 13
Исполнитель                              : Snoop Lion
Жанр                                     : Reggae / Hip-Hop
Дата записи                              : 2013
Библиотека кодирования                   : LAME3.99r
Обложка                                  : Yes
Тип обложки                              : Cover (front)
MIME-тип обложки                         : image/jpeg
Аудио
Формат                                   : MPEG Audio
Версия формата                           : Version 1
Профиль формата                          : Layer 3
Режим                                    : Joint stereo
Расширение режима                        : MS Stereo
Продолжительность                        : 3 м. 12 с.
Вид битрейта                             : Постоянный
Битрейт                                  : 320 Кбит/сек
Каналы                                   : 2 канала
Частота                                  : 44,1 КГц
Метод сжатия                             : С потерями
Размер потока                            : 7,35 Мбайт (99%)
Библиотека кодирования                   : LAME3.99r
Настройки программы                      : -m j -V 4 -q 3 -lowpass 20.5
Общее
Полное имя                               : D:\Торрент раздача\Snoop Lion  - Reincarnated (Deluxe Edition)\14. Remedy (Feat. Busta Rhymes And Chris Brown).mp3
Формат                                   : MPEG Audio
Размер файла                             : 6,93 Мбайт
Продолжительность                        : 3 м. 0 с.
Режим общего битрейта                    : Постоянный
Общий поток                              : 320 Кбит/сек
Альбом                                   : Reincarnated (Deluxe Edition)
Трек                                     : Remedy (Feat. Busta Rhymes And Chris Brown)
Трек/Положение                           : 14
Исполнитель                              : Snoop Lion
Жанр                                     : Reggae / Hip-Hop
Дата записи                              : 2013
Библиотека кодирования                   : LAME3.99r
Обложка                                  : Yes
Тип обложки                              : Cover (front)
MIME-тип обложки                         : image/jpeg
Аудио
Формат                                   : MPEG Audio
Версия формата                           : Version 1
Профиль формата                          : Layer 3
Режим                                    : Joint stereo
Продолжительность                        : 3 м. 0 с.
Вид битрейта                             : Постоянный
Битрейт                                  : 320 Кбит/сек
Каналы                                   : 2 канала
Частота                                  : 44,1 КГц
Метод сжатия                             : С потерями
Размер потока                            : 6,88 Мбайт (99%)
Библиотека кодирования                   : LAME3.99r
Настройки программы                      : -m j -V 4 -q 3 -lowpass 20.5
Общее
Полное имя                               : D:\Торрент раздача\Snoop Lion  - Reincarnated (Deluxe Edition)\15. La La La.mp3
Формат                                   : MPEG Audio
Размер файла                             : 7,97 Мбайт
Продолжительность                        : 3 м. 27 с.
Режим общего битрейта                    : Постоянный
Общий поток                              : 320 Кбит/сек
Альбом                                   : Reincarnated (Deluxe Edition)
Трек                                     : La La La
Трек/Положение                           : 15
Исполнитель                              : Snoop Lion
Жанр                                     : Reggae / Hip-Hop
Дата записи                              : 2013
Библиотека кодирования                   : LAME3.99r
Обложка                                  : Yes
Тип обложки                              : Cover (front)
MIME-тип обложки                         : image/jpeg
Аудио
Формат                                   : MPEG Audio
Версия формата                           : Version 1
Профиль формата                          : Layer 3
Режим                                    : Joint stereo
Продолжительность                        : 3 м. 27 с.
Вид битрейта                             : Постоянный
Битрейт                                  : 320 Кбит/сек
Каналы                                   : 2 канала
Частота                                  : 44,1 КГц
Метод сжатия                             : С потерями
Размер потока                            : 7,92 Мбайт (99%)
Библиотека кодирования                   : LAME3.99r
Настройки программы                      : -m j -V 4 -q 3 -lowpass 20.5
Общее
Полное имя                               : D:\Торрент раздача\Snoop Lion  - Reincarnated (Deluxe Edition)\16. Harder Times (Feat. Jahdan Blakkamoore).mp3
Формат                                   : MPEG Audio
Размер файла                             : 8,19 Мбайт
Продолжительность                        : 3 м. 33 с.
Режим общего битрейта                    : Постоянный
Общий поток                              : 320 Кбит/сек
Альбом                                   : Reincarnated (Deluxe Edition)
Трек                                     : Harder Times (Feat. Jahdan Blakkamoore)
Трек/Положение                           : 16
Исполнитель                              : Snoop Lion
Жанр                                     : Reggae / Hip-Hop
Дата записи                              : 2013
Библиотека кодирования                   : LAME3.99r
Обложка                                  : Yes
Тип обложки                              : Cover (front)
MIME-тип обложки                         : image/jpeg
Аудио
Формат                                   : MPEG Audio
Версия формата                           : Version 1
Профиль формата                          : Layer 3
Режим                                    : Joint stereo
Расширение режима                        : MS Stereo
Продолжительность                        : 3 м. 33 с.
Вид битрейта                             : Постоянный
Битрейт                                  : 320 Кбит/сек
Каналы                                   : 2 канала
Частота                                  : 44,1 КГц
Метод сжатия                             : С потерями
Размер потока                            : 8,14 Мбайт (99%)
Библиотека кодирования                   : LAME3.99r
Настройки программы                      : -m j -V 4 -q 3 -lowpass 20.5
Общее
Полное имя                               : D:\Торрент раздача\Snoop Lion  - Reincarnated (Deluxe Edition)\Cover.jpg
Формат                                   : JPEG
Размер файла                             : 1,17 Мбайт
Изображения
Формат                                   : JPEG
Ширина                                   : 1500 пикселей
Высота                                   : 1500 пикселей
Цветовое пространство                    : YUV
Субдискретизация насыщенности            : 4:2:0
Битовая глубина                          : 8 бит
Метод сжатия                             : С потерями
Размер потока                            : 1,17 Мбайт (100%)
Общее
Полное имя                               : D:\Торрент раздача\Snoop Lion  - Reincarnated (Deluxe Edition)\Scans covers\Back.jpg
Формат                                   : JPEG
Размер файла                             : 561 Кбайт
Изображения
Формат                                   : JPEG
Ширина                                   : 1200 пикселей
Высота                                   : 1013 пикселей
Цветовое пространство                    : YUV
Субдискретизация насыщенности            : 4:2:0
Битовая глубина                          : 8 бит
Метод сжатия                             : С потерями
Размер потока                            : 561 Кбайт (100%)
Общее
Полное имя                               : D:\Торрент раздача\Snoop Lion  - Reincarnated (Deluxe Edition)\Scans covers\CD.jpg
Формат                                   : JPEG
Размер файла                             : 528 Кбайт
Изображения
Формат                                   : JPEG
Ширина                                   : 1417 пикселей
Высота                                   : 1420 пикселей
Цветовое пространство                    : YUV
Субдискретизация насыщенности            : 4:2:0
Битовая глубина                          : 8 бит
Метод сжатия                             : С потерями
Размер потока                            : 528 Кбайт (100%)
Общее
Полное имя                               : D:\Торрент раздача\Snoop Lion  - Reincarnated (Deluxe Edition)\Scans covers\Front.jpg
Формат                                   : JPEG
Размер файла                             : 398 Кбайт
Изображения
Формат                                   : JPEG
Ширина                                   : 1024 пикселя
Высота                                   : 1024 пикселя
Цветовое пространство                    : YUV
Субдискретизация насыщенности            : 4:2:0
Битовая глубина                          : 8 бит
Метод сжатия                             : С потерями
Размер потока                            : 398 Кбайт (100%)
Общее
Полное имя                               : D:\Торрент раздача\Snoop Lion  - Reincarnated (Deluxe Edition)\Scans covers\Proof.jpg
Формат                                   : JPEG
Размер файла                             : 11,2 Мбайт
Изображения
Формат                                   : JPEG
Ширина                                   : 4139 пикселей
Высота                                   : 2711 пикселей
Цветовое пространство                    : YUV
Субдискретизация насыщенности            : 4:2:0
Битовая глубина                          : 8 бит
Метод сжатия                             : С потерями
Размер потока                            : 11,2 Мбайт (100%)
Реставрация от: kudzin
Яндекс.Метрика
Рейтинг@Mail.ru