Discovery:Совершенно секретно. Тайные операции ЦРУ / Secrets Of. CIA Blak Ops (Eric Katzenberg)[ (2012), Документальный, спецназ, история, SATRip]

 

Создавать темы 16-Ноя-2013 04:43

Discovery: Совершенно секретно. Тайные операции ЦРУ / Secrets Of. CIA Blak Ops (2012) SATRip- Режиссер / Телекомпания: Discovery
Русское название: Совершенно секретно
Оригинальное название: Secrets Of
Год выпуска: 2012
Жанр: Документальный, спецназ, история
Выпущено: Великобритания, Discovery Channel
Описание:
Военные подразделения спецназначения - мощное оружие для каждой страны. Российский спецназ, британская САС, американская «Дельта», израильский спецназ — в каждом государстве есть свои элитные войска. В этом фильме бывшие сотрудники раскроют некоторые секреты своего таинственного мира...
Режиссёр: Eric Katzenberg
Текст читал: Павел Гимнис
Озвучено: Студия Кирилица
Перевод: Одноголосый закадровый
Продолжительность: ~ 00:43:57
Видеокодек: DviX
Битрейт видео: ~1372 kb/s
Размер кадра: 704 x 400
Качество видео: SATRip
Аудиокодек: MP3, 1ch.
Битрейт аудио: 128 kb/s

MediaInfo

Формат : AVI
Формат/Информация : Audio Video Interleave
Размер файла : 475 Мбайт
Продолжительность : 43 м.
Общий поток : 1509 Кбит/сек
Библиотека кодирования : Boilsoft Joiner build 2411/release
Видео
Идентификатор : 0
Формат : MPEG-4 Visual
Профиль формата : Advanced [email protected]
Параметр BVOP формата : 2
Параметр QPel формата : Нет
Параметр GMC формата : Без точки перехода
Параметр матрицы формата : Default (MPEG)
Идентификатор кодека : DX50
Идентификатор кодека/Подсказка : DivX 5
Продолжительность : 43 м.
Битрейт : 1372 Кбит/сек
Ширина : 704 пикселя
Высота : 400 пикселей
Соотношение сторон : 16:9
Частота кадров : 25,000 кадров/сек
Цветовое пространство : YUV
Субдискретизация насыщенности : 4:2:0
Битовая глубина : 8 бит
Тип развёртки : Прогрессивная
Метод сжатия : С потерями
Бит/(Пиксели*Кадры) : 0.195
Размер потока : 431 Мбайт (91%)
Библиотека кодирования : XviD 73
Аудио
Идентификатор : 1
Формат : MPEG Audio
Версия формата : Version 1
Профиль формата : Layer 3
Идентификатор кодека : 55
Идентификатор кодека/Подсказка : MP3
Продолжительность : 43 м.
Вид битрейта : Постоянный
Битрейт : 128 Кбит/сек
Каналы : 1 канал
Частота : 44,1 КГц
Метод сжатия : С потерями
Размер потока : 40,2 Мбайт (8%)
Выравнивание : Разделение по промежуткам
Продолжительность промежутка : 40 мс. (1,00 видеокадр)
Время предзагрузки промежутка : 500 мс.
Библиотека кодирования : LAME3.99r
Настройки программы : -m m -V 4 -q 2 -lowpass 20.5 -b 128

Яндекс.Метрика
Рейтинг@Mail.ru