Сын ворона (2014,фэнтези, приключения,истрия,боевик)(Александр Щурихин) DVB (сезон 1, серии 1-8 из 8)

 

Создавать темы 15-Дек-2014 18:54

-Сын ворона (2014) DVB (сезон 1, серии 1-8 из 8)- Год выпуска: 2014
Жанр: фэнтези, приключения,истрия,боевик
Режиссер: Александр Щурихин
Актеры: Александр Прудников, Светлана Левичева, Юлия Подозёрова, Николай Сахаров, Максим Башкин, Надежда Бахтина, Борис Щербаков, Ольга Бынкова, Сергей Горбачев (II), Николай Зазуля, Александр Давыдов (III), Диана Морозова, Олег Лебедев-Бовольский, Максимилиан Потёмкин, Андрей Ланд, Вячеслав Ганенко
Описание фильма:
XII век. В ночном море пираты Балтийского побережья замечают купеческий ког. Бандиты зажигают фальш-маяк и вскоре судно налетает на рифы. Собирая выброшенную на берег добычу, пираты обнаруживают под светом факелов люльку с ребенком, который чудом остался в живых. На край колыбели садится ворон. Ясно, что это знак, посланный богами с небес. У местного вождя Радомира когда-то в одном из набегов погиб сын, поэтому он усыновляет младенца и дает ему имя Роарг, что значит "сын ворона"...

Дата российской премьеры: 13 декабря 2014 (Россия-2)
Продолжительность: ~00:45:00 серия
Качество видео: DVB
Формат: TS
Видеокодек: H.264
Битрейт видео: ~2523 Kbps (0.243 bit/pixel)
Размер кадра: 720x576 (4:3) 25.00fps
Аудиокодек: MPEG Audio, 2 ch
Битрейт аудио: 192 kb/s, 48,0 kHz

Благодарности:

Большое СПАСИБО людям под никами WOWA 63 & Серый1779 за предоставление исходника

Mediainfo:

Общее
Идентификатор : 1 (0x1)
Полное имя : D:\Сын ворона DVB\Сын Ворона 01_серия_DVB_by_Wowa63_&_Серый1779.ts
Формат : MPEG-TS
Размер файла : 947 Мбайт
Продолжительность : 46 м.
Режим общего битрейта : Переменный
Общий поток : 2858 Кбит/сек
Видео
Идентификатор : 69 (0x45)
Идентификатор меню : 1 (0x1)
Формат : AVC
Формат/Информация : Advanced Video Codec
Профиль формата : [url=mailto:[email protected]][email protected][/url]
Параметр CABAC формата : Да
Параметр ReFrames формата : 3 кадра
Идентификатор кодека : 27
Продолжительность : 46 м.
Битрейт : 2523 Кбит/сек
Ширина : 720 пикселей
Высота : 576 пикселей
Соотношение сторон : 4:3
Частота кадров : 25,000 кадров/сек
Стандарт вещания : PAL
Цветовое пространство : YUV
Субдискретизация насыщенности : 4:2:0
Битовая глубина : 8 бит
Тип развёртки : Прогрессивная
Бит/(Пиксели*Кадры) : 0.243
Размер потока : 836 Мбайт (88%)
Аудио
Идентификатор : 68 (0x44)
Идентификатор меню : 1 (0x1)
Формат : MPEG Audio
Версия формата : Version 1
Профиль формата : Layer 2
Идентификатор кодека : 3
Продолжительность : 46 м.
Вид битрейта : Постоянный
Битрейт : 192 Кбит/сек
Каналы : 2 канала
Частота : 48,0 КГц
Метод сжатия : С потерями
Размер потока : 63,6 Мбайт (7%)
Язык : English
Скриншоты:
Яндекс.Метрика
Рейтинг@Mail.ru