Отчаянный: Дилогия / Desperado: Dilogy (1995-2003) HDRip [AVO]

 

Создавать темы 15-Дек-2014 17:14

-Отчаянный / Desperado (1995) HDRip- Год выпуска: 1995
Жанр: Боевик, Триллер, Криминал
Производство: США / Columbia Pictures Corporation-Описание фильма:
Он — бесстрашный герой, ведущий охоту на короля преступного мира. Но — исполнить приговор невозможно. Но — вновь на карту поставлена жизнь любимой, и начинается жестокое противостояние одиночки и армии вооруженных до зубов головорезов.
Режиссер: Роберт Родригес
Актеры: Антонио Бандерас, Сальма Хайек, Жоаким ди Алмейда, Чич Марин, Стив Бушеми, Карлос Гомес, Квентин Тарантино, Тито Ларрива, Энджел Авилес-Перевод: Одноголосый закадровый, авторский
Автор перевода: А.Ю.Гаврилов
Язык субтитров: отсутствуют-
Дата мировой премьеры: 25 августа 1995
Дата выхода DVD релиза: 23 июля 1997, «Columbia/Sony»-Продолжительность: 01:44:31
Качество видео: HDRip
Видео: MPEG4, XviD, 688x368 (1.870), 23.976 fps, 858 Kbps (0.141 bit/pixel)
Аудио: MP3, 48.0 KHz, 2 ch, 128 Kbps, CBR

Mediainfo:

Формат                                   : AVI
Формат/Информация                        : Audio Video Interleave
Размер файла                             : 744 Мбайт
Продолжительность                        : 1 ч. 44 м.
Общий поток                              : 995 Кбит/сек
Программа кодирования                    : VirtualDubMod 1.5.10.3 | [url=http://www.virtualdub-fr.org]www.virtualdub-fr.org[/url] || (build 2550/release)
Библиотека кодирования                   : VirtualDubMod build 2550/release
Видео
Идентификатор                            : 0
Формат                                   : MPEG-4 Visual
Профиль формата                          : Advanced [email protected]
Параметр BVOP формата                    : 1
Параметр QPel формата                    : Нет
Параметр GMC формата                     : Без точки перехода
Параметр матрицы формата                 : Default (MPEG)
Идентификатор кодека                     : XVID
Идентификатор кодека/Подсказка           : XviD
Продолжительность                        : 1 ч. 44 м.
Битрейт                                  : 858 Кбит/сек
Ширина                                   : 688 пикселей
Высота                                   : 368 пикселей
Соотношение сторон                       : 1,85:1
Частота кадров                           : 23,976 кадра/сек
Цветовое пространство                    : YUV
Субдискретизация насыщенности            : 4:2:0
Битовая глубина                          : 8 бит
Тип развёртки                            : Прогрессивная
Метод сжатия                             : С потерями
Бит/(Пиксели*Кадры)                      : 0.141
Размер потока                            : 641 Мбайт (86%)
Библиотека кодирования                   : XviD 73
Аудио
Идентификатор                            : 1
Формат                                   : MPEG Audio
Версия формата                           : Version 1
Профиль формата                          : Layer 3
Идентификатор кодека                     : 55
Идентификатор кодека/Подсказка           : MP3
Продолжительность                        : 1 ч. 44 м.
Вид битрейта                             : Постоянный
Битрейт                                  : 128 Кбит/сек
Каналы                                   : 2 канала
Частота                                  : 48,0 КГц
Метод сжатия                             : С потерями
Размер потока                            : 95,7 Мбайт (13%)
Выравнивание                             : Соединение по промежуткам
Продолжительность промежутка             : 42  мс. (1,00 видеокадр)
Время предзагрузки промежутка            : 504  мс.
Библиотека кодирования                   : LAME3.99r
Настройки программы                      : -m s -V 4 -q 2 -lowpass 17 -b 128
Скриншоты:
-
--Однажды в Мексике / Once Upon a Time in Mexico (2003) HDRip- Год выпуска: 2003
Производство: США / Columbia Pictures Corporation
Жанр: Боевик, Криминал-Описание фильма:
Этот фильм — продолжение истории о гитаристе Эль Марьячи. На этот раз он пытается помешать могущественному наркобарону Баррильо свергнуть президента Мексики.
Это задание он получает от продажного агента ЦРУ Сэндса, который не хочет рисковать собственной жизнью ради спасения жизни главы чужого государства. Приключения Эль Марьячи начинаются на фоне грядущей революции, всеобщей неразберихи и кровной мести.
Главный герой, ставший известным благодаря превосходной игре Антонио Бандераса, великолепно справляется как с гитарой, так и с пистолетом, и, несмотря на все трудности и раны, всегда добивается успеха.
Режиссер: Роберт Родригес
Актеры: Антонио Бандерас, Сальма Хайек, Джонни Депп, Микки Рурк, Ева Мендес, Дэнни Трехо, Энрике Иглесиас, Марко Леонарди, Чич Марин, Уиллем Дефо-Перевод: Одноголосый закадровый, авторский
Автор перевода: А.Ю.Гаврилов
Язык субтитров: отсутствуют-
Дата мировой премьеры: 27 августа 2003
Дата российской премьеры: 2 октября 2003, «Каскад»
Дата выхода DVD релиза: 7 апреля 2011, «Columbia/Sony»-Продолжительность: 01:41:42
Качество видео: HDRip
Видео: MPEG4, XviD, 688x384 (16:9), 23.976 fps, 891 Kbps (0.141 bit/pixel)
Аудио: MP3, 48.0 KHz, 2 ch, 128 Kbps, CBR

Mediainfo:

Формат                                   : AVI
Формат/Информация                        : Audio Video Interleave
Размер файла                             : 748 Мбайт
Продолжительность                        : 1 ч. 41 м.
Общий поток                              : 1028 Кбит/сек
Программа кодирования                    : VirtualDubMod 1.5.10.3 | [url=http://www.virtualdub-fr.org]www.virtualdub-fr.org[/url] || (build 2550/release)
Библиотека кодирования                   : VirtualDubMod build 2550/release
Видео
Идентификатор                            : 0
Формат                                   : MPEG-4 Visual
Профиль формата                          : Advanced [email protected]
Параметр BVOP формата                    : 1
Параметр QPel формата                    : Нет
Параметр GMC формата                     : Без точки перехода
Параметр матрицы формата                 : Default (MPEG)
Идентификатор кодека                     : XVID
Идентификатор кодека/Подсказка           : XviD
Продолжительность                        : 1 ч. 41 м.
Битрейт                                  : 891 Кбит/сек
Ширина                                   : 688 пикселей
Высота                                   : 384 пикселя
Соотношение сторон                       : 16:9
Частота кадров                           : 23,976 кадра/сек
Цветовое пространство                    : YUV
Субдискретизация насыщенности            : 4:2:0
Битовая глубина                          : 8 бит
Тип развёртки                            : Прогрессивная
Метод сжатия                             : С потерями
Бит/(Пиксели*Кадры)                      : 0.141
Размер потока                            : 648 Мбайт (87%)
Библиотека кодирования                   : XviD 73
Аудио
Идентификатор                            : 1
Формат                                   : MPEG Audio
Версия формата                           : Version 1
Профиль формата                          : Layer 3
Идентификатор кодека                     : 55
Идентификатор кодека/Подсказка           : MP3
Продолжительность                        : 1 ч. 41 м.
Вид битрейта                             : Постоянный
Битрейт                                  : 128 Кбит/сек
Каналы                                   : 2 канала
Частота                                  : 48,0 КГц
Метод сжатия                             : С потерями
Размер потока                            : 93,1 Мбайт (12%)
Выравнивание                             : Соединение по промежуткам
Продолжительность промежутка             : 42  мс. (1,00 видеокадр)
Время предзагрузки промежутка            : 504  мс.
Библиотека кодирования                   : LAME3.99r
Настройки программы                      : -m s -V 4 -q 2 -lowpass 17 -b 128
Скриншоты:
--Время раздачи: с 12:00 до 18:30 до 3-х скачавших
Яндекс.Метрика
Рейтинг@Mail.ru