Возврат / Cashback (Шон Эллис),[(2006), Драма, мелодрама, комедия, BDRip 720p от MediaClub] | P

 

Создавать темы 16-Ноя-2013 04:35

Информация о фильме
Название: Возврат
Оригинальное название: Cashback
Год выхода: 2006
Жанр: Драма, мелодрама, комедия
Режиссер: Шон Эллис
В ролях: Шон Биггерстаф, Эмилия Фокс, Стюарт Гудвин, Майкл Лэмбурн, Майкл Диксон, Мишель Райан, Эрика Эллис, Джей Бауэн, Шон Эванс, Кеннет Фахи, Стэн Эллис, Кэти Болл, Селеста Ходж, Ниа Робертс, Хатти Ример, Кинвара Бальфур, Чери Николь, Винни Ли, Лене Босейджер, Фрэнк Хескет, Хейли-Мари Коппин, Кили Хэзелл, Кристин Фуллер, Мишель Бентли, Гари Бисон, Катарина Олссон, Гэйл Дадли, Генриетта Басс, Саманта Блум, Эмилия Фентон, Ник Хэнкок, Ховард Уорд, Родди Эдейр, Ли Уилсон, Джеймс Смит, Гари МакНалти, Натали Дэннинг, Мэттью Ходжсон, Три Карр, Катрин Фалькенберг, Хейден Джонс, Грэхэм Уорд, Кубрик Эллис, Люси Холт, Дафна Гиннесс
О фильме:
Переживая болезненное расставание с любимой, Бен впадает в бессоницу. В освободившиеся 8 часов он начинает работать в ночную смену местного супермаркета, где главной задачей обслуживающего персонала является «время убийство». Неожиданно Бен обнаруживает в себе необычную способность останавливать время, что дает толчок его художественному таланту. Его моделями становятся очаровательные покупательницы в полупустом супермаркете...

Страна: Великобритания / Left Turn Films, Lip Sync Productions, Ugly Duckling Films
Продолжительность: 01:42:03
Перевод: Профессиональный многоголосый
Файл
Кодек: x264
Качество: BDRip 720p
Видео: MPEG-4 AVC, 6700 Кбит/с, 1280х544, 23.976 кадр/c
Аудио #1: Русский (AC3, 6 ch, 448 Кбит/с) / Профессиональный многоголосый
Аудио #2: Английский (DTS, 6 ch, 1509 Кбит/с)
Субтитры: Русские, английские
Семпл

О релизе

• За исходник СПАСИБО HDTrecker
• Сохраненны оригинальные чаптеры как на Blu-Ray
--------------------------------------------------------------------------------------
x264 [info]: frame I:1125 Avg QP:15.36 size:139953
x264 [info]: frame P:30522 Avg QP:17.50 size: 63757
x264 [info]: frame B:115167 Avg QP:18.48 size: 26036
--------------------------------------------------------------------------------------

MI

Format : Matroska
Format version : Version 4 / Version 2
File size : 6.15 GiB
Duration : 1h 42mn
Overall bit rate : 8 623 Kbps
Movie name : -=MediaClub-Odessit=-
Encoded date : UTC 2013-11-15 21:39:34
Writing application : mkvmerge v6.2.0 ('Promised Land') built on Apr 28 2013 12:22:01
Writing library : libebml v1.3.0 + libmatroska v1.4.0
Video
ID : 1
Format : AVC
Format/Info : Advanced Video Codec
Format profile : [email protected]
Format settings, CABAC : Yes
Format settings, ReFrames : 9 frames
Codec ID : V_MPEG4/ISO/AVC
Duration : 1h 42mn
Bit rate : 6 700 Kbps
Width : 1 280 pixels
Height : 544 pixels
Display aspect ratio : 2.35:1
Frame rate : 23.976 fps
Color space : YUV
Chroma subsampling : 4:2:0
Bit depth : 8 bits
Scan type : Progressive
Bits/(Pixel*Frame) : 0.401
Stream size : 4.63 GiB (75%)
Writing library : x264 core 130 r2273 b3065e6
Encoding settings : cabac=1 / ref=9 / deblock=1:-3:-3 / analyse=0x3:0x133 / me=umh / subme=11 / psy=1 / psy_rd=1.00:0.20 / mixed_ref=1 / me_range=48 / chroma_me=1 / trellis=2 / 8x8dct=1 / cqm=0 / deadzone=21,11 / fast_pskip=0 / chroma_qp_offset=-3 / threads=6 / lookahead_threads=1 / sliced_threads=0 / nr=0 / decimate=0 / interlaced=0 / bluray_compat=0 / constrained_intra=0 / bframes=9 / b_pyramid=2 / b_adapt=2 / b_bias=0 / direct=3 / weightb=1 / open_gop=0 / weightp=2 / keyint=240 / keyint_min=23 / scenecut=40 / intra_refresh=0 / rc=2pass / mbtree=0 / bitrate=6700 / ratetol=1.0 / qcomp=0.60 / qpmin=0 / qpmax=69 / qpstep=4 / cplxblur=20.0 / qblur=0.5 / ip_ratio=1.40 / pb_ratio=1.30 / aq=1:1.00
Language : English
Audio #1
ID : 2
Format : AC-3
Format/Info : Audio Coding 3
Mode extension : CM (complete main)
Codec ID : A_AC3
Duration : 1h 42mn
Bit rate mode : Constant
Bit rate : 448 Kbps
Channel(s) : 6 channels
Channel positions : Front: L C R, Side: L R, LFE
Sampling rate : 48.0 KHz
Bit depth : 16 bits
Compression mode : Lossy
Stream size : 327 MiB (5%)
Title : Профессиональный многоголосый
Language : Russian
Audio #2
ID : 3
Format : DTS
Format/Info : Digital Theater Systems
Codec ID : A_DTS
Duration : 1h 42mn
Bit rate mode : Constant
Bit rate : 1 510 Kbps
Channel(s) : 6 channels
Channel positions : Front: L C R, Side: L R, LFE
Sampling rate : 48.0 KHz
Bit depth : 24 bits
Compression mode : Lossy
Stream size : 1.08 GiB (18%)
Language : English
Text #1
ID : 4
Format : UTF-8
Codec ID : S_TEXT/UTF8
Codec ID/Info : UTF-8 Plain Text
Language : Russian
Text #2
ID : 5
Format : UTF-8
Codec ID : S_TEXT/UTF8
Codec ID/Info : UTF-8 Plain Text
Language : English
Menu
00:00:00.000 : en:Chapter 01
00:01:20.747 : en:Chapter 02
00:04:24.639 : en:Chapter 03
00:10:39.972 : en:Chapter 04
00:13:39.151 : en:Chapter 05
00:16:52.678 : en:Chapter 06
00:21:46.305 : en:Chapter 07
00:25:01.500 : en:Chapter 08
00:29:24.763 : en:Chapter 09
00:32:43.503 : en:Chapter 10
00:34:31.235 : en:Chapter 11
00:40:06.362 : en:Chapter 12
00:44:31.418 : en:Chapter 13
00:47:32.307 : en:Chapter 14
00:55:26.823 : en:Chapter 15
00:58:53.780 : en:Chapter 16
01:03:36.229 : en:Chapter 17
01:11:02.466 : en:Chapter 18
01:13:21.355 : en:Chapter 19
01:17:19.801 : en:Chapter 20
01:21:34.973 : en:Chapter 21
01:28:49.907 : en:Chapter 22
01:30:38.683 : en:Chapter 23
01:35:57.752 : en:Chapter 24
01:42:02.449 : en:Chapter 25

Скриншоты

Яндекс.Метрика
Рейтинг@Mail.ru