Это классно! / Pretty Cool (2006) DVDRip

 

Создавать темы 15-Дек-2014 17:03

-Это классно! / Pretty Cool (2006) DVDRip
« When A Geek Gets The Ultimate Power... ANYTHING can happen! »
- Год выпуска: 2006
Производство: США | Hope Street Entertainment
Жанр: Фэнтези
Описание фильма:
Говард во всех своих снах видит одну и ту же девушку, но не знает кто она. И вот однажды, опаздывая на выпускной, он натыкается на Тиффани, которая в точности напоминает ему девушку из снов. Правда заинтересовать ее у него столько же шансов, как потерять девственность этим летом. Говард — неудачник, который должен потратить все лето на летнюю школу. Но неожиданно, он приобретает способность читать мысли людей и влиять на их решения...
Расширенная версия, длиннее имеющейся на ~ 20 минут (добавлены эротические сцены, перевод не требуется)
Режиссер: Рольф Канефски
Актеры: Уилл Бурк, Алексис Торпе, Герард Карсенти, Эми Брассетт, Сесилия Бергквист, Саммер Элтис, Синди Кэмпбелл, Холли Сэмпсон, Джэйк Валдингер, Роберт Донован
Продолжительность: 01:51:18
Качество видео: DVDRip
Перевод: Профессиональный (многоголосый, закадровый) [ТНТ]
Язык субтитров: Отсутствуют-
Дата мировой премьеры: 24 ноября 2006-Видео: XviD, 704x352 (2.000), 23.980 fps, ~1463 kbps avg, 0.246 bit/pixel
Аудио: 44.100 kHz, MPEG Layer 3, 2 ch, ~256.00 kbps avg
Сэмпл: Скачать

MediaInfo

General
Complete name                  : E:\фильмы\Pretty.Cool.2006.DVDRip.avi
Format                         : AVI
Format/Info                    : Audio Video Interleave
File size                      : 1.34 GiB
Duration                       : 1h 51mn
Overall bit rate               : 1 729 Kbps
Writing application            : VirtualDubMod 1.5.10.2 (build 2540/release)
Writing library                : VirtualDubMod build 2540/release
Video
ID                             : 0
Format                         : MPEG-4 Visual
Format profile                 : [email protected]
Format settings, BVOP          : No
Format settings, QPel          : No
Format settings, GMC           : No warppoints
Format settings, Matrix        : Default (H.263)
Codec ID                       : XVID
Codec ID/Hint                  : XviD
Duration                       : 1h 51mn
Bit rate                       : 1 463 Kbps
Width                          : 704 pixels
Height                         : 352 pixels
Display aspect ratio           : 2.000
Frame rate                     : 23.976 fps
Color space                    : YUV
Chroma subsampling             : 4:2:0
Bit depth                      : 8 bits
Scan type                      : Progressive
Compression mode               : Lossy
Bits/(Pixel*Frame)             : 0.246
Stream size                    : 1.14 GiB (85%)
Writing library                : XviD 64
Audio
ID                             : 1
Format                         : MPEG Audio
Format version                 : Version 1
Format profile                 : Layer 3
Mode                           : Joint stereo
Codec ID                       : 55
Codec ID/Hint                  : MP3
Duration                       : 1h 51mn
Bit rate mode                  : Constant
Bit rate                       : 256 Kbps
Channel(s)                     : 2 channels
Sampling rate                  : 44.1 KHz
Compression mode               : Lossy
Stream size                    : 204 MiB (15%)
Alignment                      : Split accross interleaves
Interleave, duration           : 42 ms (1.00 video frame)
Interleave, preload duration   : 500 ms
Writing library                : LAME3.98.4
Скриншоты:
Яндекс.Метрика
Рейтинг@Mail.ru