[ Сегодня на трекере фрилич! Идет свободное скачивание без начисления Download ]

Мул / The Mule (2014) HDRip

 

Создавать темы 15-Дек-2014 17:01

- Мул / The Mule (2014)- Год выпуска: 2014
Производство: Австралия
Жанр: Криминал, комедия, драма
Режиссер: Тони Махони, Энгус Сэмпсон
Актеры:
Хьюго Уивинг, Энгус Сэмпсон, Ли Уоннелл, Ивен Лесли, Джофф Морелл, Джорджина Хэйг, Нони Хазлхерст, Джон Ноубл, Ник Фарнелл, Саймон Кинг
Описание фильма:
История о наивном человеке, который согласился на перевозку наркотиков в своем желудке и был задержан федеральной полицией. Он, оставшийся один и напуганный, принимает отчаянное решение: бросает вызов своему организму и удерживает доказательства внутри… в буквальном смысле. Поступая таким образом, он становится «человеческой бомбой замедленного действия», затаскивая полицейских, преступников и свою семью в безвыходную авантюру.
Перевод: Любительский (двухголосый) [den904 & DeadSno]
Субтитры: Отсутствуют-
Дата мировой премьеры: 9 марта 2014-Продолжительность: 01:42:37
Качество видео: HDRip
Видеокодек: XviD
Битрейт видео: 1581 Кбит/сек
Размер кадра: 720x304
Аудио: AC-3, 6 каналов, 448 Кбит/сек, 48,0 КГц
Сэмпл: Скачать

MediaInfo:

Общее
Полное имя : D:\Фильмы новинки\The.Mule.2014.HDRip.avi
Формат : AVI
Формат/Информация : Audio Video Interleave
Размер файла : 1,46 Гбайт
Продолжительность : 1 ч. 42 м.
Общий поток : 2038 Кбит/сек
Программа кодирования : VirtualDubMod 1.5.10.2 (build 2542/release)
Библиотека кодирования : VirtualDubMod build 2542/release
Видео
Идентификатор : 0
Формат : MPEG-4 Visual
Профиль формата : Advanced [email protected]
Параметр BVOP формата : 2
Параметр QPel формата : Нет
Параметр GMC формата : Без точки перехода
Параметр матрицы формата : Default (MPEG)
Идентификатор кодека : XVID
Идентификатор кодека/Подсказка : XviD
Продолжительность : 1 ч. 42 м.
Битрейт : 1581 Кбит/сек
Ширина : 720 пикселей
Высота : 304 пикселя
Соотношение сторон : 2,35:1
Частота кадров : 24,000 кадра/сек
Цветовое пространство : YUV
Субдискретизация насыщенности : 4:2:0
Битовая глубина : 8 бит
Тип развёртки : Прогрессивная
Метод сжатия : С потерями
Бит/(Пиксели*Кадры) : 0.301
Размер потока : 1,13 Гбайт (78%)
Библиотека кодирования : XviD 1.2.1 (UTC 2008-12-04)
Аудио
Идентификатор : 1
Формат : AC-3
Формат/Информация : Audio Coding 3
Расширение режима : CM (complete main)
Параметр Endianness формата : Big
Идентификатор кодека : 2000
Продолжительность : 1 ч. 42 м.
Вид битрейта : Постоянный
Битрейт : 448 Кбит/сек
Каналы : 6 каналов
Расположение каналов : Front: L C R, Side: L R, LFE
Частота : 48,0 КГц
Битовая глубина : 16 бит
Метод сжатия : С потерями
Размер потока : 329 Мбайт (22%)
Выравнивание : Разделение по промежуткам
Продолжительность промежутка : 42 мс. (1,00 видеокадр)
Время предзагрузки промежутка : 500 мс.
Скриншоты:-Время раздачи: По возможности. До первых 5 сидов.
Яндекс.Метрика
Рейтинг@Mail.ru