Подводная лодка / Das Boot(Вольфганг Петерсен)[ (1985), драма, военный,DVDRip-AVC ] Полная версия

 

Создавать темы 16-Ноя-2013 04:32

Страна: Германия (ФРГ), Великобритания, Франция
Жанр: драма, военный
Год выпуска: 1985
Продолжительность: 01:43:57 + 02:57:21
Перевод: Профессиональный (многоголосый, закадровый) + Английский-Режиссер: Вольфганг Петерсен / Wolfgang Petersen-В ролях: Юрген Прохнов (Der Alte), Херберт Грёнемайер (Leutnant Werner), Клаус Веннеманн (Leitender Ingenieur (LI)), Хабертус Бенгш (Erster Wachoffizier (I WO)), Мартин Земмельрогге (Zweiter Wachoffizier (II WO)), Бернд Таубер (Obersteuermann), Эрвин Ледер (Johann, das Gespenst), Мартин Май (Ullmann), Хайнц Хёниг (Hinrich), Уве Оксенкнехт (Bootsmann), Клод-Оливер Рудольф (Ario), Ян Федер (Pilgrim)-Описание: Фильм рассказывает о боевом походе немецкой подводной лодки и людях, поставленных по воле судьбы и времени в ситуацию, когда необходимо убивать, чтобы жить.- -Семпл 1
Семпл 2 -Качество: DVDRip
Контейнер: MKV-

Часть первая

Видео: AVC, 720x552 @ 1024х552 (1.855), 1352 kbps, 25 fps, 0.136 bpp
Аудио №1: русский / AC3 / 5.1 / 48 kHz / 384 kbps
Аудио №2: английский / AC3 / 2.0 / 48 kHz / 192 kbps
Навигация по главам: есть-Media Info
----------------------------------------------------
x264 [info]: frame I:1252 Avg QP:17.79 size: 29506
x264 [info]: frame P:72652 Avg QP:20.85 size: 10368
x264 [info]: frame B:82035 Avg QP:22.45 size: 3215
----------------------------------------------------
Format : Matroska
Format version : Version 2
File size : 1.40 GiB
Duration : 1h 43mn
Overall bit rate : 1 930 Kbps
Movie name : = Подводная лодка / Das Boot (сериал) DVDRip by SC Kosmos =
Encoded date : UTC 2013-11-14 16:12:36
Writing application : mkvmerge v5.3.0 ('I could have danced') built on Feb 9 2012 10:38:07
Writing library : libebml v1.2.3 + libmatroska v1.3.0
Video
ID : 1
Format : AVC
Format/Info : Advanced Video Codec
Format profile : [email protected]
Format settings, CABAC : Yes
Format settings, ReFrames : 14 frames
Codec ID : V_MPEG4/ISO/AVC
Duration : 1h 43mn
Bit rate : 1 352 Kbps
Width : 720 pixels
Height : 552 pixels
Display aspect ratio : 1.855
Frame rate : 25.000 fps
Color space : YUV
Chroma subsampling : 4:2:0
Bit depth : 8 bits
Scan type : Progressive
Bits/(Pixel*Frame) : 0.136
Stream size : 978 MiB (68%)
Title : Подводная лодка / Das Boot (сериал) DVDRip by SC Kosmos
Writing library : x264 core 140 r2377 1ca7bb9
Encoding settings : cabac=1 / ref=14 / deblock=1:-2:-2 / analyse=0x3:0x113 / me=umh / subme=11 / psy=1 / psy_rd=1.00:0.00 / mixed_ref=1 / me_range=48 / chroma_me=1 / trellis=2 / 8x8dct=1 / cqm=0 / deadzone=21,11 / fast_pskip=0 / chroma_qp_offset=-2 / threads=12 / lookahead_threads=1 / sliced_threads=0 / nr=0 / decimate=1 / interlaced=0 / bluray_compat=0 / constrained_intra=0 / bframes=10 / b_pyramid=2 / b_adapt=1 / b_bias=0 / direct=1 / weightb=1 / open_gop=0 / weightp=2 / keyint=250 / keyint_min=25 / scenecut=40 / intra_refresh=0 / rc_lookahead=40 / rc=2pass / mbtree=0 / bitrate=1352 / ratetol=1.0 / qcomp=0.60 / qpmin=0 / qpmax=69 / qpstep=4 / cplxblur=20.0 / qblur=0.5 / vbv_maxrate=50000 / vbv_bufsize=50000 / nal_hrd=none / filler=0 / ip_ratio=1.40 / pb_ratio=1.30 / aq=1:1.00
Language : German
Default : Yes
Forced : No
Audio #1
ID : 2
Format : AC-3
Format/Info : Audio Coding 3
Mode extension : CM (complete main)
Codec ID : A_AC3
Duration : 1h 43mn
Bit rate mode : Constant
Bit rate : 384 Kbps
Channel(s) : 6 channels
Channel positions : Front: L C R, Side: L R, LFE
Sampling rate : 48.0 KHz
Bit depth : 16 bits
Compression mode : Lossy
Stream size : 286 MiB (20%)
Title : MVO
Language : Russian
Default : Yes
Forced : No
Audio #2
ID : 3
Format : AC-3
Format/Info : Audio Coding 3
Mode extension : CM (complete main)
Codec ID : A_AC3
Duration : 1h 43mn
Bit rate mode : Constant
Bit rate : 192 Kbps
Channel(s) : 2 channels
Channel positions : Front: L R
Sampling rate : 48.0 KHz
Bit depth : 16 bits
Compression mode : Lossy
Stream size : 143 MiB (10%)
Language : English
Default : No
Forced : No
Menu
00:00:00.000 : en:Chapter 01
00:10:57.480 : en:Chapter 02
00:20:02.280 : en:Chapter 03
00:30:02.800 : en:Chapter 04
00:37:14.680 : en:Chapter 05
00:46:22.560 : en:Chapter 06
00:54:39.880 : en:Chapter 07
01:05:02.280 : en:Chapter 08
01:14:59.560 : en:Chapter 09
01:22:51.920 : en:Chapter 10
01:30:18.680 : en:Chapter 11
01:36:07.800 : en:Chapter 12
-

Часть вторая

Видео: AVC, 720x552 @ 1024x552 (1.855), 1750 kbps, 25 fps, 0.176 bpp
Аудио №1: русский / AC3 / 5.1 / 48 kHz / 384 kbps
Аудио №2: английский / AC3 / 2.0 / 48 kHz / 192 kbps
Навигация по главам: есть-Media Info
-----------------------------------------------------
x264 [info]: frame I:2398 Avg QP:15.87 size: 31131
x264 [info]: frame P:135830 Avg QP:18.57 size: 12877
x264 [info]: frame B:127808 Avg QP:20.21 size: 3942
-----------------------------------------------------
Format : Matroska
Format version : Version 2
File size : 2.88 GiB
Duration : 2h 57mn
Overall bit rate : 2 328 Kbps
Movie name : = Подводная лодка / Das Boot (сериал) DVDRip by SC Kosmos =
Encoded date : UTC 2013-11-14 16:04:55
Writing application : mkvmerge v5.3.0 ('I could have danced') built on Feb 9 2012 10:38:07
Writing library : libebml v1.2.3 + libmatroska v1.3.0
Video
ID : 1
Format : AVC
Format/Info : Advanced Video Codec
Format profile : [email protected]
Format settings, CABAC : Yes
Format settings, ReFrames : 14 frames
Codec ID : V_MPEG4/ISO/AVC
Duration : 2h 57mn
Bit rate : 1 750 Kbps
Width : 720 pixels
Height : 552 pixels
Display aspect ratio : 1.855
Frame rate : 25.000 fps
Color space : YUV
Chroma subsampling : 4:2:0
Bit depth : 8 bits
Scan type : Progressive
Bits/(Pixel*Frame) : 0.176
Stream size : 2.11 GiB (73%)
Title : Подводная лодка / Das Boot (сериал) DVDRip by SC Kosmos
Writing library : x264 core 140 r2377 1ca7bb9
Encoding settings : cabac=1 / ref=14 / deblock=1:-2:-2 / analyse=0x3:0x113 / me=umh / subme=11 / psy=1 / psy_rd=1.00:0.00 / mixed_ref=1 / me_range=48 / chroma_me=1 / trellis=2 / 8x8dct=1 / cqm=0 / deadzone=21,11 / fast_pskip=0 / chroma_qp_offset=-2 / threads=12 / lookahead_threads=1 / sliced_threads=0 / nr=0 / decimate=1 / interlaced=0 / bluray_compat=0 / constrained_intra=0 / bframes=10 / b_pyramid=2 / b_adapt=1 / b_bias=0 / direct=1 / weightb=1 / open_gop=0 / weightp=2 / keyint=250 / keyint_min=25 / scenecut=40 / intra_refresh=0 / rc_lookahead=40 / rc=2pass / mbtree=0 / bitrate=1750 / ratetol=1.0 / qcomp=0.60 / qpmin=0 / qpmax=69 / qpstep=4 / cplxblur=20.0 / qblur=0.5 / vbv_maxrate=50000 / vbv_bufsize=50000 / nal_hrd=none / filler=0 / ip_ratio=1.40 / pb_ratio=1.30 / aq=1:1.00
Language : German
Default : Yes
Forced : No
Audio #1
ID : 2
Format : AC-3
Format/Info : Audio Coding 3
Mode extension : CM (complete main)
Codec ID : A_AC3
Duration : 2h 57mn
Bit rate mode : Constant
Bit rate : 384 Kbps
Channel(s) : 6 channels
Channel positions : Front: L C R, Side: L R, LFE
Sampling rate : 48.0 KHz
Bit depth : 16 bits
Compression mode : Lossy
Stream size : 487 MiB (16%)
Title : MVO
Language : Russian
Default : Yes
Forced : No
Audio #2
ID : 3
Format : AC-3
Format/Info : Audio Coding 3
Mode extension : CM (complete main)
Codec ID : A_AC3
Duration : 2h 57mn
Bit rate mode : Constant
Bit rate : 192 Kbps
Channel(s) : 2 channels
Channel positions : Front: L R
Sampling rate : 48.0 KHz
Bit depth : 16 bits
Compression mode : Lossy
Stream size : 244 MiB (8%)
Language : English
Default : No
Forced : No
Menu
00:00:00.000 : en:Chapter 01
00:00:03.000 : en:Chapter 02
00:00:06.000 : en:Chapter 03
00:00:09.000 : en:Chapter 04
00:00:12.000 : en:Chapter 05
00:00:15.000 : en:Chapter 06
00:00:18.000 : en:Chapter 07
00:00:21.000 : en:Chapter 08
00:00:24.000 : en:Chapter 09
00:00:27.000 : en:Chapter 10
00:00:30.000 : en:Chapter 11
00:00:33.000 : en:Chapter 12
00:00:36.000 : en:Chapter 13
00:10:16.280 : en:Chapter 14
00:18:27.760 : en:Chapter 15
00:27:08.920 : en:Chapter 16
00:34:40.560 : en:Chapter 17
00:43:32.840 : en:Chapter 18
00:51:59.000 : en:Chapter 19
00:59:55.000 : en:Chapter 20
01:07:33.920 : en:Chapter 21
01:15:30.760 : en:Chapter 22
01:22:53.920 : en:Chapter 23
01:29:51.560 : en:Chapter 24
01:34:35.560 : en:Chapter 25
01:40:10.920 : en:Chapter 26
01:49:21.960 : en:Chapter 27
01:59:41.160 : en:Chapter 28
02:07:52.880 : en:Chapter 29
02:15:35.560 : en:Chapter 30
02:23:43.640 : en:Chapter 31
02:30:09.480 : en:Chapter 32
02:38:40.640 : en:Chapter 33
02:44:36.760 : en:Chapter 34
02:49:51.520 : en:Chapter 35
02:55:29.920 : en:Chapter 36
Яндекс.Метрика
Рейтинг@Mail.ru