Игорь Иванов - Из Вагантов (1995) [APE|Lossless]<Retro>

 

Создавать темы 15-Дек-2014 13:55

-Игорь Иванов - Из Вагантов (1995)- Год: 1995
Жанр: Retro
Продолжительность: 00:58:19
Тип рипа: image+.cue
Кодек: APE
Битрейт: Lossless
Треклист:
01. Прощай
02. Мы С Тобою Танцуем
03. Я Прошу, Вернись
04. Кто Тебе Сказал
05. Из Вагантов
06. Ночные Миражи
07. Ать-Два
08. Догорает День
09. Облака В Реке
10. Алло, Алло, Алёна
11. Признание
12. Сапожник
13. Генерал
14. Две Жизни

Отчёт ЕАС&#58;

Exact Audio Copy V0.99 prebeta 4 from 23. January 2008
Отчёт EAC об извлечении, выполненном 20. февраля 2008, 23:07
Игорь Иванов / Из Вагантов
Дисковод: PIONEER DVD-RW DVR-212D Adapter: 5 ID: 0
Режим чтения : Достоверность
Использование точного потока : Да
Отключение кэша аудио : Да
Использование указателей C2 : Нет
Коррекция смещения при чтении : 48
Способность читать области Lead-in и Lead-out : Нет
Заполнение пропущенных сэмплов тишиной : Да
Удаление блоков с тишиной в начале и конце : Нет
При вычислениях CRC использовались нулевые сэмплы : Да
Интерфейс : Установленный внешний ASPI-интерфейс
Выходной формат : Monkey's Audio Lossless Encoder v3.99 DLL
Формат сэмплов : Normal Lossless Compression
TOC извлечённого CD
Трек | Старт | Длительность | Начальный сектор | Конечный сектор
---------------------------------------------------------------------
1 | 0:00.25 | 4:39.50 | 25 | 20999
2 | 4:40.00 | 3:34.25 | 21000 | 37074
3 | 8:14.25 | 4:20.50 | 37075 | 56624
4 | 12:35.00 | 3:16.00 | 56625 | 71324
5 | 15:51.00 | 3:08.00 | 71325 | 85424
6 | 18:59.00 | 5:07.00 | 85425 | 108449
7 | 24:06.00 | 4:40.62 | 108450 | 129511
8 | 28:46.62 | 3:48.13 | 129512 | 146624
9 | 32:35.00 | 3:16.50 | 146625 | 161374
10 | 35:51.50 | 4:30.50 | 161375 | 181674
11 | 40:22.25 | 5:05.00 | 181675 | 204549
12 | 45:27.25 | 3:07.12 | 204550 | 218586
13 | 48:34.37 | 4:46.13 | 218587 | 240049
14 | 53:20.50 | 4:58.25 | 240050 | 262424
Характеристики диапазона извлечения и сообщения об ошибках
Выбранный диапазон
Имя файла C:\EAC\Игорь Иванов - Из Вагантов.ape
Пиковый уровень 89.8 %
Качество диапазона 99.9 %
CRC теста 436ACF1A
CRC копии 436ACF1A
Копирование... OK
Ошибок не произошло
AccurateRip: сводка
Трек 1 нет в базе данных
Трек 2 нет в базе данных
Трек 3 нет в базе данных
Трек 4 нет в базе данных
Трек 5 нет в базе данных
Трек 6 нет в базе данных
Трек 7 нет в базе данных
Трек 8 нет в базе данных
Трек 9 нет в базе данных
Трек 10 нет в базе данных
Трек 11 нет в базе данных
Трек 12 нет в базе данных
Трек 13 нет в базе данных
Трек 14 нет в базе данных
Ни одного трека нет в базе AccurateRip
Конец отчёта

Отчёт auCDtect Task manager&#58;

-----------------------
DON'T MODIFY THIS FILE
-----------------------
PERFORMER: auCDtect Task Manager, ver. 1.6.0 RC1 build 1.6.0.1
Copyright (c) 2008-2010 y-soft. All rights reserved
http://y-soft.org
ANALYZER: auCDtect: CD records authenticity detector, version 0.8.2
Copyright (c) 2004 Oleg Berngardt. All rights reserved.
Copyright (c) 2004 Alexander Djourik. All rights reserved.
FILE: Игорь Иванов - Из Вагантов.ape
  Size: 367817976 Hash: DBBB554D6191ECC573A653CAA08A38D6 Accuracy: -m0
  Conclusion: MPEG 95%
  Signature: A135622E0C1B65E734262D3110D60FF7909BA357
-
Яндекс.Метрика
Рейтинг@Mail.ru