Мегера / Vixen! (Расс Мейер/ Russ Meyer) [1968, Комедия, Эротика, DVDRip]

 

Создавать темы 15-Дек-2014 12:02

Мегера / Vixen! -- Русское название: Мегера
Оригинальное название: Vixen!
Год выпуска: 1968
Жанр: Комедия, Эротика
Описание фильма:
Мегера живет в канадском горном курорте с наивным мужем-авиатором Томом Палмером.
В то время как он обучает летать туристов, жена отправляется на поиски мускулистых парней.
Однажды Том привозит в дом туристов-молодоженов...
Культовый фильм Расса Майера, радующий взгляд изобилием обнаженной натуры.
При этом все сдобрено изрядной порцией юмора.

Режиссер: Расс Мейер
Актеры: Эрика Гэвин, Гарт Пилсбери, Пейдж Гаррисон, Джон Эванс, Роберт Аикен, Майкл Донован О’Донелл, Джон Фурлонг
Продолжительность: 01:10:50
Перевод: Одноголосый закадровый - А. Алексеев
КИНОПОИСК
IMDB

Видеокодек: Xvid
Качество видео: DVDRip
Видео: MPEG4, XviD, 704x528 (4:3), 25.000 fps, 1 262 Kbps (0.136 bit/pixel)
Аудио: MP3, 48.0 KHz, 2 ch, 107 Kbps, VBR

MediaInfo

Общее
Формат : AVI
Формат/Информация : Audio Video Interleave
Размер файла : 700 Мбайт
Продолжительность : 1 ч. 10 м.
Режим общего битрейта : Переменный
Общий поток : 1382 Кбит/сек
Программа кодирования : VirtualDubMod 1.5.4.1 (build 2178/release)
Библиотека кодирования : VirtualDubMod build 2178/release
Видео
Идентификатор : 0
Формат : MPEG-4 Visual
Профиль формата : Advanced [email protected]
Параметр BVOP формата : 1
Параметр QPel формата : Нет
Параметр GMC формата : Без точки перехода
Параметр матрицы формата : Выборочная
Идентификатор кодека : XVID
Идентификатор кодека/Подсказка : XviD
Продолжительность : 1 ч. 10 м.
Битрейт : 1262 Кбит/сек
Ширина : 704 пикселя
Высота : 528 пикселей
Соотношение сторон : 4:3
Частота кадров : 25,000 кадров/сек
Цветовое пространство : YUV
Субдискретизация насыщенности : 4:2:0
Битовая глубина : 8 бит
Тип развёртки : Прогрессивная
Метод сжатия : С потерями
Бит/(Пиксели*Кадры) : 0.136
Размер потока : 639 Мбайт (91%)
Библиотека кодирования : XviD 1.2.1 (UTC 2008-12-04)
Аудио
Идентификатор : 1
Формат : MPEG Audio
Версия формата : Version 1
Профиль формата : Layer 3
Режим : Joint stereo
Расширение режима : MS Stereo
Идентификатор кодека : 55
Идентификатор кодека/Подсказка : MP3
Продолжительность : 1 ч. 10 м.
Вид битрейта : Переменный
Битрейт : 107 Кбит/сек
Номинальный битрейт : 128 Кбит/сек
Каналы : 2 канала
Частота : 48,0 КГц
Метод сжатия : С потерями
Размер потока : 54,2 Мбайт (8%)
Выравнивание : Соединение по промежуткам
Продолжительность промежутка : 24 мс. (0,60 видеокадр)
Время предзагрузки промежутка : 513 мс.
Библиотека кодирования : LAME3.98r
Настройки программы : -m j -V 4 -q 2 -lowpass 17 --abr 128
Язык : Russian
Скриншоты:
Яндекс.Метрика
Рейтинг@Mail.ru