[ Сегодня на трекере фрилич! Идет свободное скачивание без начисления Download ]

Париж: Город мёртвых / As Above, So Below (Джон Эрик Даудл / John Erick Dowdle) [2014 г., ужасы, триллер, BDRip-AVC] Dub (Лицензия) + VO (Д.Есарев) + Original (Eng) + Sub (Rus, Eng)

 

Создавать темы 15-Дек-2014 04:21

-Париж: Город мёртвых / As Above, So Below-«Увидеть Париж и умереть»- Производство: США
Год выпуска: 2014 г.
Жанр: ужасы, триллер
Продолжительность: 01:33:01
Мировая премьера: 19 августа 2014
Российская премьера: 2 октября 2014, «UPI»
Дата выхода DVD: 18 декабря 2014, «Двадцатый Век Фокс СНГ»
Дата выхода Blu-Ray: 18 декабря 2014, «Двадцатый Век Фокс СНГ»
Перевод: Профессиональный (полное дублирование) [Лицензия]
Перевод 2: Любительский (одноголосный, закадровый) [Д.Есарев]
Оригинальный аудиопоток: английский-Режиссер: Джон Эрик Даудл / John Erick Dowdle
В ролях: Пердита Викс, Бен Фельдман, Эдвин Ходж, Франсуа Сивиль, Мэрион Ламберт, Али Мархьяр, Косме Кастро, Хамид Джавадан, Тео Чолби, Эми Леви-Описание: Величие Эйфелевой башни и роскошь бутиков, ароматы изысканной кухни и краски Елисейских полей — это лишь саван, под которым скрывается настоящий Париж. Здесь, в бесконечных катакомбах живут истинные владыки этого мира.
Заблудшая душа, добро пожаловать в Город мертвых…- -Качество видео: BDRip-AVC
Контейнер: MKV
Видео кодек: MPEG4 AVC
Аудио кодек: AC3
Видео: 1024x552 (1.85:1), 2 232 Kbps, 23.976 fps
Аудио: 448 Kbps, 6 ch, 48.0 KHz - Dub [Rus]
Аудио #2: 448 Kbps, 6 ch, 48.0 KHz - VO [Rus]
Аудио #3: 448 Kbps, 6 ch, 48.0 KHz - Original [Eng]
Cубтитры: Russian (Full), English (Full, SDH, Colored) [.SRT]

Знаете ли вы, что...

• Фильм снимался в настоящих катакомбах, а не на съемочной площадке.
• У фильма не было предварительного показа для критиков.

Ошибки в фильме

• Когда в фильме показывают дом Фламеля, то показывают, что он находится на улице Фламеля. На самом деле дом Фламеля находится на улице Монморанси.

Log x264

x264 [info]: frame I:599   Avg QP:14.94  size: 51290
x264 [info]: frame P:43675 Avg QP:17.83  size: 20532
x264 [info]: frame B:89545 Avg QP:20.10  size:  7032

Media Info

General
Unique ID : 183205132178396407979408180759874172091 (0x89D406669508579AB0B58F047C3EF4BB)
Complete name : C:\Users\Ivan\Desktop\As.Above,So.Below.2014.D.BDRip-AVC.mkv
Format : Matroska
Format version : Version 4 / Version 2
File size : 2.33 GiB
Duration : 1h 33mn
Overall bit rate : 3 575 Kbps
Movie name : Rip by LPPI
Encoded date : UTC 2014-12-14 17:31:45
Writing application : mkvmerge v7.4.0 ('Circles') 64bit built on Dec 12 2014 12:19:56
Writing library : libebml v1.3.0 + libmatroska v1.4.1
DURATION : 01:31:33.241000000
NUMBER_OF_FRAMES : 1582
NUMBER_OF_BYTES : 53253
_STATISTICS_WRITING_APP : mkvmerge v7.4.0 ('Circles') 64bit built on Dec 12 2014 12:19:56
_STATISTICS_WRITING_DATE_UT : 2014-12-14 17:31:45
_STATISTICS_TAGS : BPS DURATION NUMBER_OF_FRAMES NUMBER_OF_BYTES
Video
ID : 1
Format : AVC
Format/Info : Advanced Video Codec
Format profile : [email protected]
Format settings, CABAC : Yes
Format settings, ReFrames : 7 frames
Codec ID : V_MPEG4/ISO/AVC
Duration : 1h 33mn
Bit rate : 2 232 Kbps
Width : 1 024 pixels
Height : 552 pixels
Display aspect ratio : 1.85:1
Frame rate mode : Constant
Frame rate : 23.976 fps
Color space : YUV
Chroma subsampling : 4:2:0
Bit depth : 8 bits
Scan type : Progressive
Bits/(Pixel*Frame) : 0.165
Stream size : 1.40 GiB (60%)
Title : Париж: Город мёртвых / As Above, So Below
Writing library : x264 core 130 r2273 b3065e6
Encoding settings : cabac=1 / ref=7 / deblock=1:-3:-3 / analyse=0x3:0x133 / me=umh / subme=10 / psy=1 / psy_rd=1.00:0.15 / mixed_ref=0 / me_range=32 / chroma_me=1 / trellis=2 / 8x8dct=1 / cqm=0 / deadzone=21,11 / fast_pskip=0 / chroma_qp_offset=-3 / threads=12 / lookahead_threads=2 / sliced_threads=0 / nr=0 / decimate=0 / interlaced=0 / bluray_compat=0 / constrained_intra=0 / bframes=7 / b_pyramid=2 / b_adapt=2 / b_bias=0 / direct=3 / weightb=1 / open_gop=0 / weightp=2 / keyint=250 / keyint_min=23 / scenecut=40 / intra_refresh=0 / rc=2pass / mbtree=0 / bitrate=2232 / ratetol=1.0 / qcomp=0.60 / qpmin=0 / qpmax=69 / qpstep=4 / cplxblur=20.0 / qblur=0.5 / ip_ratio=1.40 / pb_ratio=1.30 / aq=1:1.00
Language : English
Default : Yes
Forced : No
DURATION : 01:33:01.377000000
NUMBER_OF_FRAMES : 133819
NUMBER_OF_BYTES : 1557113069
_STATISTICS_WRITING_APP : mkvmerge v7.4.0 ('Circles') 64bit built on Dec 12 2014 12:19:56
_STATISTICS_WRITING_DATE_UT : 2014-12-14 17:31:45
_STATISTICS_TAGS : BPS DURATION NUMBER_OF_FRAMES NUMBER_OF_BYTES
Audio #1
ID : 2
Format : AC-3
Format/Info : Audio Coding 3
Mode extension : CM (complete main)
Format settings, Endianness : Big
Codec ID : A_AC3
Duration : 1h 33mn
Bit rate mode : Constant
Bit rate : 448 Kbps
Channel(s) : 6 channels
Channel positions : Front: L C R, Side: L R, LFE
Sampling rate : 48.0 KHz
Bit depth : 16 bits
Compression mode : Lossy
Stream size : 298 MiB (13%)
Title : Dub (Лицензия)
Language : Russian
Default : Yes
Forced : No
Audio #2
ID : 3
Format : AC-3
Format/Info : Audio Coding 3
Mode extension : CM (complete main)
Format settings, Endianness : Big
Codec ID : A_AC3
Duration : 1h 33mn
Bit rate mode : Constant
Bit rate : 448 Kbps
Channel(s) : 6 channels
Channel positions : Front: L C R, Side: L R, LFE
Sampling rate : 48.0 KHz
Bit depth : 16 bits
Compression mode : Lossy
Stream size : 298 MiB (13%)
Title : VO (Д.Есарев)
Language : Russian
Default : No
Forced : No
Audio #3
ID : 4
Format : AC-3
Format/Info : Audio Coding 3
Mode extension : CM (complete main)
Format settings, Endianness : Big
Codec ID : A_AC3
Duration : 1h 33mn
Bit rate mode : Constant
Bit rate : 448 Kbps
Channel(s) : 6 channels
Channel positions : Front: L C R, Side: L R, LFE
Sampling rate : 48.0 KHz
Bit depth : 16 bits
Compression mode : Lossy
Stream size : 298 MiB (13%)
Title : Original
Language : English
Default : No
Forced : No
Text #1
ID : 5
Format : UTF-8
Codec ID : S_TEXT/UTF8
Codec ID/Info : UTF-8 Plain Text
Title : Full
Language : Russian
Default : No
Forced : No
Text #2
ID : 6
Format : UTF-8
Codec ID : S_TEXT/UTF8
Codec ID/Info : UTF-8 Plain Text
Title : Full
Language : English
Default : No
Forced : No
Text #3
ID : 7
Format : UTF-8
Codec ID : S_TEXT/UTF8
Codec ID/Info : UTF-8 Plain Text
Title : SDH
Language : English
Default : No
Forced : No
Text #4
ID : 8
Format : UTF-8
Codec ID : S_TEXT/UTF8
Codec ID/Info : UTF-8 Plain Text
Title : Colored
Language : English
Default : No
Forced : No
Menu
00:00:00.000 : en:00:00:00.000
00:07:00.045 : en:00:07:00.045
00:09:42.749 : en:00:09:42.749
00:13:18.673 : en:00:13:18.673
00:18:37.074 : en:00:18:37.074
00:22:33.352 : en:00:22:33.352
00:24:42.815 : en:00:24:42.815
00:29:38.777 : en:00:29:38.777
00:33:03.857 : en:00:33:03.857
00:37:17.777 : en:00:37:17.777
00:43:05.333 : en:00:43:05.333
00:47:07.491 : en:00:47:07.491
00:53:20.739 : en:00:53:20.739
00:59:00.328 : en:00:59:00.328
01:05:33.555 : en:01:05:33.555
01:11:40.213 : en:01:11:40.213
01:16:05.603 : en:01:16:05.603
01:20:20.733 : en:01:20:20.733
01:26:02.616 : en:01:26:02.616
01:27:57.189 : en:01:27:57.189

Скриншоты

Яндекс.Метрика
Рейтинг@Mail.ru