Лучшие Из Лучших 4: Без Предупреждения / Best of the Best 4: Without Warning (Филлип Ри / Phillip Ree) [1998 г., Боевик, HDRip-AVC] AVO (Юрий Живов) + DVO + Original (Eng)

 

Создавать темы 15-Дек-2014 04:20

Лучшие Из Лучших 4: Без Предупреждения / Best of the Best 4: Without Warning Год выпуска: 1998
Производство: США
Жанр: Боевик
Продолжительность: 01:30:32
Перевод: Авторский (одноголосый, закадровый) Юрий Живов
Перевод: Профессиональный (двухголосый, закадровый)
Оригинальный аудиопоток: Английский
Субтитры: отсутствуют
Режиссер: Филлип Ри / Phillip Ree
В ролях: Филлип Ри, Эрни Хадсон, Тобин Белл, Туре Райфенштайн, Джессика Коллинз, Крис Леммон, Пол Глисон, Арт ЛаФлёр, Свен-Оле Торсен, Джессика Хуанг
Описание: Русская мафия крадет компьютерный диск, принадлежащий Государственному казначейству США, и угоняет целый грузовик со специальной бумагой, на которой печатаются американские доллары. Теперь ничто не мешает бандитам наводнить мир несколькими тоннами баксов, которые и фальшивыми-то назвать нельзя. Однако драгоценный диск случайно попадает в руки Томми Ли, который, ни о чем не подозревая, мгновенно становится для русских гангстеров мишенью номер один. Стремясь вернуть диск любой ценой, бандиты похищают дочь Томми…
, КиноПоиск
Качество видео: HDRip-AVC
Контейнер: MKV
Видео кодек: H.264
Аудио кодек: AC3
Видео: 1072x576, 23.976fps, 3715 Kbps, 0.251 bt/px
Аудио : AC3, 384 Kbps, 5.1 ch, 48 KHz Rus Живов
Аудио : AC3, 384 Kbps, 5.1 ch, 48 KHz Rus DVO
Аудио : AC3, 384 Kbps, 5.1 ch, 48 KHz Eng Original

Доп. информация

Рип сделан из BDRip 1080P найденного в сети.
Дороги с DVD из коллекции.
Раздаю до первых 5 скачавших!

Media Info

G:\загрузки\Best_of_the_Best_4_[Pirat.ca].torrent.mkv
General
Unique ID : 170142030040803872138645620865036004153 (0x800029BD5897C87FBA7CF41BDFF52B39)
Complete name : G:\загрузки\Best_of_the_Best_4_[Pirat.ca].torrent.mkv
Format : Matroska
Format version : Version 1
File size : 3.14 GiB
Duration : 1h 30mn
Overall bit rate : 4 965 Kbps
Encoded date : UTC 2014-12-14 12:01:26
Writing application : mkvmerge v2.5.3 ('Boogie') built on Mar 7 2009 15:00:41
Writing library : libebml v0.7.7 + libmatroska v0.8.1
Video #1
ID : 1
Format : AVC
Format/Info : Advanced Video Codec
Format profile : [email protected]
Format settings, CABAC : Yes
Format settings, ReFrames : 9 frames
Codec ID : V_MPEG4/ISO/AVC
Duration : 1h 30mn
Bit rate : 3 715 Kbps
Width : 1 072 pixels
Height : 576 pixels
Display aspect ratio : 1.85:1
Frame rate mode : Constant
Frame rate : 23.976 fps
Color space : YUV
Chroma subsampling : 4:2:0
Bit depth : 8 bits
Scan type : Progressive
Bits/(Pixel*Frame) : 0.251
Stream size : 2.35 GiB (75%)
Writing library : x264 core 130 r2273 b3065e6
Encoding settings : cabac=1 / ref=9 / deblock=1:-3:-3 / analyse=0x3:0x133 / me=umh / subme=11 / psy=1 / psy_rd=1.00:0.10 / mixed_ref=1 / me_range=32 / chroma_me=1 / trellis=2 / 8x8dct=1 / cqm=0 / deadzone=21,11 / fast_pskip=0 / chroma_qp_offset=-3 / threads=6 / lookahead_threads=1 / sliced_threads=0 / nr=0 / decimate=1 / interlaced=0 / bluray_compat=0 / constrained_intra=0 / bframes=8 / b_pyramid=2 / b_adapt=2 / b_bias=0 / direct=1 / weightb=1 / open_gop=0 / weightp=2 / keyint=250 / keyint_min=23 / scenecut=40 / intra_refresh=0 / rc=crf / mbtree=0 / crf=18.0 / qcomp=0.60 / qpmin=0 / qpmax=51 / qpstep=4 / ip_ratio=1.40 / pb_ratio=1.30 / aq=1:1.00
Language : English
Default : Yes
Forced : No
Audio #2
ID : 2
Format : AC-3
Format/Info : Audio Coding 3
Mode extension : CM (complete main)
Format settings, Endianness : Big
Codec ID : A_AC3
Duration : 1h 30mn
Bit rate mode : Constant
Bit rate : 384 Kbps
Channel(s) : 6 channels
Channel positions : Front: L C R, Side: L R, LFE
Sampling rate : 48.0 KHz
Bit depth : 16 bits
Compression mode : Lossy
Stream size : 249 MiB (8%)
Title : AVO Живов
Language : Russian
Default : Yes
Forced : No
Audio #3
ID : 3
Format : AC-3
Format/Info : Audio Coding 3
Mode extension : CM (complete main)
Format settings, Endianness : Big
Codec ID : A_AC3
Duration : 1h 30mn
Bit rate mode : Constant
Bit rate : 384 Kbps
Channel(s) : 6 channels
Channel positions : Front: L C R, Side: L R, LFE
Sampling rate : 48.0 KHz
Bit depth : 16 bits
Compression mode : Lossy
Stream size : 249 MiB (8%)
Title : DVO
Language : Russian
Default : No
Forced : No
Audio #4
ID : 4
Format : AC-3
Format/Info : Audio Coding 3
Mode extension : CM (complete main)
Format settings, Endianness : Big
Codec ID : A_AC3
Duration : 1h 30mn
Bit rate mode : Constant
Bit rate : 384 Kbps
Channel(s) : 6 channels
Channel positions : Front: L C R, Side: L R, LFE
Sampling rate : 48.0 KHz
Bit depth : 16 bits
Compression mode : Lossy
Stream size : 249 MiB (8%)
Language : English
Default : No
Forced : No

log x.264

x264 [info]: frame I:1249 Avg QP:17.63 size: 74376
x264 [info]: frame P:30202 Avg QP:18.78 size: 34952
x264 [info]: frame B:98797 Avg QP:20.76 size: 14563
x264 [info]: consecutive B-frames: 2.2% 2.9% 8.4% 33.3% 19.9% 27.8% 3.2% 1.4% 0.8%
x264 [info]: mb I I16..4: 5.2% 77.7% 17.2%
x264 [info]: mb P I16..4: 0.8% 25.4% 1.9% P16..4: 25.5% 29.5% 10.9% 1.3% 0.1% skip: 4.5%
x264 [info]: mb B I16..4: 0.1% 3.5% 0.2% B16..8: 33.2% 24.3% 4.5% direct: 8.9% skip:25.1% L0:41.0% L1:42.0% BI:17.1%
x264 [info]: 8x8 transform intra:89.3% inter:60.3%
x264 [info]: coded y,uvDC,uvAC intra: 93.3% 89.1% 67.0% inter: 35.3% 33.2% 9.2%
x264 [info]: i16 v,h,dc,p: 41% 13% 8% 39%
x264 [info]: i8 v,h,dc,ddl,ddr,vr,hd,vl,hu: 9% 9% 9% 9% 13% 12% 13% 12% 15%
x264 [info]: i4 v,h,dc,ddl,ddr,vr,hd,vl,hu: 11% 10% 6% 8% 15% 14% 14% 10% 12%
x264 [info]: i8c dc,h,v,p: 44% 23% 18% 16%
x264 [info]: Weighted P-Frames: Y:9.3% UV:4.9%
x264 [info]: ref P L0: 43.0% 12.6% 19.9% 6.7% 5.8% 3.8% 3.7% 2.0% 2.2% 0.3% 0.0%
x264 [info]: ref B L0: 78.2% 10.6% 4.6% 2.4% 1.7% 1.4% 0.8% 0.4%
x264 [info]: ref B L1: 94.8% 5.2%
x264 [info]: kb/s:3810.16
x264 [total]: encoded 130248 frames, 5.61 fps, 3810.16 kb/s

Скриншоты

Яндекс.Метрика
Рейтинг@Mail.ru