[ Сегодня на трекере фрилич! Идет свободное скачивание без начисления Download ]

Слепая ярость / Blind Fury (Филлип Нойс / Phillip Noyce) [1989 г., Боевик, Приключения, HDTVRip-AVC] AVO (Андрей Гаврилов) + Subs (Rus)

 

Создавать темы 15-Дек-2014 04:18

Слепая ярость / Blind Fury
«He may be blind but he don't need no dog»
- Год выпуска: 1989
Производство: TriStar Pictures, Interscope Communications, США
Жанр: Боевик, Приключения
Продолжительность: 01:22:49
Перевод: Авторский (одноголосый, закадровый) Андрей Гаврилов
Субтитры: русские
Режиссер: Филлип Нойс / Phillip Noyce
В ролях: Рутгер Хауэр (Nick Parker), Терри О’Куинн (Frank Devereaux), Брэндон Колл (Billy Devereaux), Ноубл Уиллингэм (MacCready), Лиза Блаунт (Annie Winchester), Ник Кассаветис (Lyle Pike), Рик Овертон (Tector Pike), Рэндал «Текс» Кобб (Slag), Чарльз Купер (Cobb), Мег Фостер (Lynn Devereaux), Сё Косуги (The Assassin), Пол Джеймс Васкес (Gang Leader)
Описание: На первый взгляд он беспомощный слепой, один из тысяч несчастных бродяг. Но не стоит слишком полагаться на собственное зрение… Ветеран Вьетнама Ник Паркер ослеп на войне, но жестокий Восток научил свою жертву великому искусству защищаться.
Вернувшись к мирной жизни, бывший солдат вынужден снова вступить в бой. Нику не нужно видеть своих врагов. Слепая ярость приведет его прямо к ним…


Качество видео: HDTVRip-AVC
Контейнер: MKV
Видео кодек: MPEG4-AVC / H.264
Видео: 1040x584 / 3774 kbps / 23,976 fps / 16:9 / High Profile 4.1
Аудио : 48 kHz, AC3 Dolby Digital, 2/0 (L,R) ch, ~192.00 kbps avg - Гаврилов
Формат субтитров: softsub (SRT)

Media Info

Формат : Matroska
Версия формата : Version 4 / Version 2
Размер файла : 2,41 Гбайт
Продолжительность : 1 ч. 22 м.
Общий поток : 4160 Кбит/сек
Название фильма : Blind Fury.1989.x264.HDTVRip-AVC.Gavrilov -=anton966=-
Дата кодирования : UTC 2014-12-14 17:29:21
Программа кодирования : mkvmerge v7.3.0 ('Nouages') 32bit built on Oct 22 2014 18:44:01
Библиотека кодирования : libebml v1.3.0 + libmatroska v1.4.1
DURATION : 01:17:13.839000000
NUMBER_OF_FRAMES : 705
NUMBER_OF_BYTES : 29085
_STATISTICS_WRITING_APP : mkvmerge v7.3.0 ('Nouages') 32bit built on Oct 22 2014 18:44:01
_STATISTICS_WRITING_DATE_UTC : 2014-12-14 17:29:21
_STATISTICS_TAGS : BPS DURATION NUMBER_OF_FRAMES NUMBER_OF_BYTES
Видео
Идентификатор : 1
Формат : AVC
Формат/Информация : Advanced Video Codec
Профиль формата : [email protected]
Параметр CABAC формата : Да
Параметр ReFrames формата : 9 кадров
Идентификатор кодека : V_MPEG4/ISO/AVC
Продолжительность : 1 ч. 22 м.
Битрейт : 3693 Кбит/сек
Ширина : 1040 пикселей
Высота : 584 пикселя
Соотношение сторон : 16:9
Режим частоты кадров : Постоянный
Частота кадров : 25,000 кадров/сек
Цветовое пространство : YUV
Субдискретизация насыщенности : 4:2:0
Битовая глубина : 8 бит
Тип развёртки : Прогрессивная
Бит/(Пиксели*Кадры) : 0.243
Размер потока : 2,14 Гбайт (89%)
Заголовок : Blind Fury.1989.x264.HDTVRip-AVC (1040x584)
Библиотека кодирования : x264 core 142 r2431 ac76440
Настройки программы : cabac=1 / ref=9 / deblock=1:-2:-1 / analyse=0x3:0x113 / me=umh / subme=11 / psy=1 / psy_rd=0.93:0.15 / mixed_ref=1 / me_range=32 / chroma_me=1 / trellis=2 / 8x8dct=1 / cqm=0 / deadzone=21,11 / fast_pskip=0 / chroma_qp_offset=-3 / threads=12 / lookahead_threads=1 / sliced_threads=0 / nr=0 / decimate=1 / interlaced=0 / bluray_compat=0 / constrained_intra=0 / bframes=6 / b_pyramid=2 / b_adapt=2 / b_bias=0 / direct=1 / weightb=1 / open_gop=0 / weightp=2 / keyint=250 / keyint_min=25 / scenecut=40 / intra_refresh=0 / rc=crf / mbtree=0 / crf=18.7 / qcomp=0.60 / qpmin=0 / qpmax=69 / qpstep=4 / ip_ratio=1.40 / pb_ratio=1.30 / aq=1:1.00
Язык : English
Default : Да
Forced : Нет
DURATION : 01:22:48.520000000
NUMBER_OF_FRAMES : 124213
NUMBER_OF_BYTES : 2344100838
_STATISTICS_WRITING_APP : mkvmerge v7.3.0 ('Nouages') 32bit built on Oct 22 2014 18:44:01
_STATISTICS_WRITING_DATE_UTC : 2014-12-14 17:29:21
_STATISTICS_TAGS : BPS DURATION NUMBER_OF_FRAMES NUMBER_OF_BYTES
Аудио
Идентификатор : 2
Формат : AC-3
Формат/Информация : Audio Coding 3
Профиль формата : Dolby Digital
Расширение режима : CM (complete main)
Параметр Endianness формата : Big
Идентификатор кодека : A_AC3
Продолжительность : 1 ч. 22 м.
Вид битрейта : Постоянный
Битрейт : 384 Кбит/сек
Каналы : 2 канала
Расположение каналов : Front: L R
Частота : 48,0 КГц
Битовая глубина : 16 бит
Метод сжатия : С потерями
Размер потока : 227 Мбайт (9%)
Заголовок : Gavrilov
Язык : Russian
Default : Да
Forced : Нет
Текст
Идентификатор : 3
Формат : UTF-8
Идентификатор кодека : S_TEXT/UTF8
Идентификатор кодека/Информация : UTF-8 Plain Text
Язык : Russian
Default : Нет
Forced : Нет
Меню
00:00:00.000 : en:
00:06:00.000 : en:
00:09:26.000 : en:
00:10:46.000 : en:
00:18:31.000 : en:
00:20:36.000 : en:
00:22:32.000 : en:
00:24:23.000 : en:
00:27:42.000 : en:
00:29:30.000 : en:
00:34:52.000 : en:
00:35:45.000 : en:
00:38:14.000 : en:
00:39:55.000 : en:
00:47:55.000 : en:
00:56:30.000 : en:
01:01:30.000 : en:
01:15:14.000 : en:
01:18:35.000 : en:

log x.264

avs [info]: 1040x584p 1:1 @ 25/1 fps (cfr)
x264 [info]: using SAR=1/1
x264 [info]: using cpu capabilities: MMX2 SSE2Fast SSSE3 SSE4.2 AVX XOP FMA4 FMA3 LZCNT BMI1
x264 [info]: profile High, level 4.1
x264 [info]: frame I:946 Avg QP:18.10 size: 78514
x264 [info]: frame P:31992 Avg QP:19.24 size: 33159
x264 [info]: frame B:91275 Avg QP:21.81 size: 13246
x264 [info]: consecutive B-frames: 2.0% 3.0% 6.6% 69.8% 11.1% 5.3% 2.3%
x264 [info]: mb I I16..4: 8.9% 75.2% 16.0%
x264 [info]: mb P I16..4: 1.1% 25.6% 2.1% P16..4: 27.0% 31.8% 10.4% 0.0% 0.0% skip: 2.0%
x264 [info]: mb B I16..4: 0.2% 3.2% 0.2% B16..8: 31.5% 19.5% 3.1% direct:10.8% skip:31.5% L0:37.0% L1:43.7% BI:19.3%
x264 [info]: 8x8 transform intra:87.9% inter:59.1%
x264 [info]: coded y,uvDC,uvAC intra: 93.1% 81.3% 45.9% inter: 36.8% 24.0% 1.4%
x264 [info]: i16 v,h,dc,p: 15% 10% 9% 67%
x264 [info]: i8 v,h,dc,ddl,ddr,vr,hd,vl,hu: 12% 8% 8% 9% 12% 12% 12% 12% 14%
x264 [info]: i4 v,h,dc,ddl,ddr,vr,hd,vl,hu: 16% 9% 4% 8% 14% 14% 13% 11% 12%
x264 [info]: i8c dc,h,v,p: 32% 29% 22% 17%
x264 [info]: Weighted P-Frames: Y:17.1% UV:11.6%
x264 [info]: ref P L0: 51.9% 13.2% 13.3% 6.9% 3.5% 4.3% 2.5% 2.5% 1.6% 0.3% 0.0%
x264 [info]: ref B L0: 87.0% 7.0% 2.6% 1.1% 1.0% 0.6% 0.5% 0.2%
x264 [info]: ref B L1: 96.2% 3.8%
x264 [info]: kb/s:3774.32

Скриншоты

Яндекс.Метрика
Рейтинг@Mail.ru