Когда его совсем не ждешь (Екатерина Гранитова-Лавровская)(2014,Мелодрама) SATRip (серия 1-4 из 4)

 

Создавать темы 14-Дек-2014 20:02

-Когда его совсем не ждешь (2014) SATRip- Год выпуска: 2014
Жанр: Мелодрама
Производство: Кинокомпания Русское
Режиссер: Екатерина Гранитова-Лавровская
Актеры: Ирина Горячева, Александр Ефимов, Анна Уколова, Анна Арланова, Алексей Фатеев, Пётр Баранчеев, Натали Старынкевич, Андрей Заводюк
Описание фильма: В жизни Сони есть всё, кроме главного женского счастья – ребенка. Уже много лет героиня с мужем Алексеем пытаются изменить это, но все их попытки тщетны. Наконец, пара решается прибегнуть к дорогостоящей процедуре искусственного оплодотворения. Но неожиданно в жизнь Сони приходят страшные перемены. Выясняется, что у ее мужа есть внебрачная дочь, о которой он не знал. Мать девочки погибла, и теперь Алексей намерен взять ее семью. Вслед за потрясениями героиню ждет самый страшный удар: муж хочет оставить бесплодные попытки завести детей и, вместо этого, вложить деньги в воспитание новоявленной дочери. Не в силах пережить предательства, Соня рвет отношения и остается одна…

Премьера в России: 13 декабря 2014
Продолжительность: ~00:44:00 серия
Качество видео: SATRip
Формат: AVI
Видео кодек: XviD
Битрейт видео: ~1799 kbps
Размер кадра: 720x400 (1.80:1)
Аудио: МР3, 2 ch, 48 kHz, ~128.00 kbps avg

MediaInfo:

Общее
Полное имя : D:\Kogda.ego.sovsem.ne.zhdesh.SATRip\Kogda.ego.sovsem.ne.zhdesh.01.SATRip.[www.Riper.AM].avi
Формат : AVI
Формат/Информация : Audio Video Interleave
Размер файла : 622 Мбайт
Продолжительность : 44 м.
Общий поток : 1938 Кбит/сек
Программа кодирования : VirtualDubMod 1.5.10.3 | www.virtualdub-fr.org || (build 2550/release)
Библиотека кодирования : VirtualDubMod build 2550/release
Видео
Идентификатор : 0
Формат : MPEG-4 Visual
Профиль формата : Advanced [email protected]
Параметр BVOP формата : 2
Параметр QPel формата : Нет
Параметр GMC формата : Без точки перехода
Параметр матрицы формата : Default (H.263)
Идентификатор кодека : XVID
Идентификатор кодека/Подсказка : XviD
Продолжительность : 44 м.
Битрейт : 1800 Кбит/сек
Ширина : 720 пикселей
Высота : 400 пикселей
Соотношение сторон : 16:9
Частота кадров : 25,000 кадров/сек
Цветовое пространство : YUV
Субдискретизация насыщенности : 4:2:0
Битовая глубина : 8 бит
Тип развёртки : Прогрессивная
Метод сжатия : С потерями
Бит/(Пиксели*Кадры) : 0.250
Размер потока : 578 Мбайт (93%)
Библиотека кодирования : XviD 1.2.1 (UTC 2008-12-04)
Аудио
Идентификатор : 1
Формат : MPEG Audio
Версия формата : Version 1
Профиль формата : Layer 3
Режим : Joint stereo
Расширение режима : MS Stereo
Идентификатор кодека : 55
Идентификатор кодека/Подсказка : MP3
Продолжительность : 44 м.
Вид битрейта : Постоянный
Битрейт : 128 Кбит/сек
Каналы : 2 канала
Частота : 48,0 КГц
Метод сжатия : С потерями
Размер потока : 41,1 Мбайт (7%)
Выравнивание : Соединение по промежуткам
Продолжительность промежутка : 40 мс. (1,00 видеокадр)
Время предзагрузки промежутка : 504 мс.
Библиотека кодирования : LAME3.99r
Настройки программы : -m j -V 4 -q 9 -lowpass 17 -b 128
Скриншоты:
Яндекс.Метрика
Рейтинг@Mail.ru