Уходящая натура (Бегущая строка) (2013,Мелодрама)(Дмитрий Иосифов) HDTVRip (Серии 1-8 из 8)

 

Создавать темы 14-Дек-2014 19:47

-Уходящая натура (Бегущая строка) (2013) HDTVRip (Серии 1-8 из 8)- Год выпуска: 2013
Страна: Россия
Жанр: Мелодрама
Режиссер: Дмитрий Иосифов
Актеры: Сергей Колтаков, Мария Шукшина, Игорь Скляр, Алёна Бабенко, Анна Чиповская, Владимир Вдовиченков, Владимир Меньшов, Алексей Петренко, Олег Тактаров, Вячеслав Гришечкин и др.
Описание:
Конец 1970-х. В стране полным ходом идёт подготовка к Олимпиаде. А известный режиссёр Звонарёв снимает фильм — большой, масштабный проект о колхозной деревне. Тем временем, его давний друг и соавтор режиссёр Кузьменко сидит без работы. Ему давно не дают снимать. Когда-то он сделал фильм, прозвучавший на весь мир, а теперь — изгой. Звонарёв предлагает работу давнему другу...
СЭМПЛ
Продолжительность: ~ 00:52:00 серия
Качество видео: HDTVRip
Формат: AVI
Видео: 720x400 (16:9), 25 fps, XviD ~1800 kbps, ~0.250 bit/pixel
Аудио: 48 kHz, AC3 Dolby Digital, 2 ch, 192 kbps

Тех. данные (MI)

Общее
Уходящая натура (2013)\01 серия.avi
Формат : AVI
Формат/Информация : Audio Video Interleave
Размер файла : 751 Мбайт
Продолжительность : 52 м.
Общий поток : 2001 Кбит/сек
Программа кодирования : VirtualDubMod 1.5.10.3 | www.virtualdub-fr.org || (build 2550/release)
Библиотека кодирования : VirtualDubMod build 2550/release
Видео
Идентификатор : 0
Формат : MPEG-4 Visual
Профиль формата : Advanced [email protected]
Параметр BVOP формата : 1
Параметр QPel формата : Нет
Параметр GMC формата : Без точки перехода
Параметр матрицы формата : Выборочная
Идентификатор кодека : XVID
Идентификатор кодека/Подсказка : XviD
Продолжительность : 52 м.
Битрейт : 1800 Кбит/сек
Ширина : 720 пикселей
Высота : 400 пикселей
Соотношение сторон : 16:9
Частота кадров : 25,000 кадров/сек
Цветовое пространство : YUV
Субдискретизация насыщенности : 4:2:0
Битовая глубина : 8 бит
Тип развёртки : Прогрессивная
Метод сжатия : С потерями
Бит/(Пиксели*Кадры) : 0.250
Размер потока : 675 Мбайт (90%)
Библиотека кодирования : XviD 73
Аудио
Идентификатор : 1
Формат : AC-3
Формат/Информация : Audio Coding 3
Расширение режима : CM (complete main)
Параметр Endianness формата : Big
Идентификатор кодека : 2000
Продолжительность : 52 м.
Вид битрейта : Постоянный
Битрейт : 192 Кбит/сек
Каналы : 2 канала
Расположение каналов : Front: L R
Частота : 48,0 КГц
Битовая глубина : 16 бит
Метод сжатия : С потерями
Размер потока : 72,1 Мбайт (10%)
Выравнивание : Разделение по промежуткам
Продолжительность промежутка : 40 мс. (1,00 видеокадр)
Время предзагрузки промежутка : 500 мс.
Яндекс.Метрика
Рейтинг@Mail.ru