Один дома 2: Затерянный в Нью-Йорке / Home Alone 2: Lost in New York (Крис Коламбус / Chris Columbus) [1992 г., Комедия, приключения, BDRip-AVC] AVO (Михалев, Горчаков, Дохалов, Марченко, Прямостанов) + Subs (Rus)

 

Создавать темы 14-Дек-2014 19:10

Один дома 2: Затерянный в Нью-Йорке / Home Alone 2: Lost in New York
«First, he was home alone, now he's lost in New York»
- Год выпуска: 1992
Производство: США
Жанр: Комедия, приключения
Продолжительность: 02:00:01
Перевод: Авторский (одноголосый, закадровый) Михалев, Горчаков, Дохалов, Марченко, Прямостанов
Субтитры: русские
Режиссер: Крис Коламбус / Chris Columbus
В ролях: Маколей Калкин, Джо Пеши, Дэниел Стерн, Кэтрин О’Хара, Джон Хёрд, Девин Рэтрей, Хиллари Вульф, Морин Элизабет Шэй, Майкл С. Маронна, Джерри Бэммен
Описание: Второе место по кассовым сборам в США в 1992 году (после "Бэтмэн возвращается"). Успех закономерный - фильм-продолжение прекрасно смотрится. На этот раз Кевин Макалистер (Калкин) потерялся не дома, в Чикаго, а в самом Нью-Йорке, в то время как его шумная семейка отбыла на отдых во Флориду. Изобретательный Кевин сначала прожигает юную жизнь в роскошном отеле, а затем с пионерским задором метелит двух придурковатых негодяев, его извечных спарринг-партнеров. Высококлассное зрелище для всей семьи. (Иванов М.)

Качество видео: BDRip-AVC
Контейнер: MKV
Видео кодек: MPEG4-AVC / H.264
Видео: 1024x552 / 3399 kbps / 23,976 fps / 1,85:1 / High Profile 4.1
Аудио#1: 48 kHz, AC3 Dolby Digital, 3/2 (L,C,R,l,r) + LFE ch, ~448.00 kbps avg - Михалев
Аудио#2: 48 kHz, AC3 Dolby Digital, 3/2 (L,C,R,l,r) + LFE ch, ~448.00 kbps avg - Горчаков
Аудио#3: 48 kHz, AC3 Dolby Digital, 2/0 (L,R) ch, ~192.00 kbps avg - Дохалов
Аудио#4: 48 kHz, AC3 Dolby Digital, 2/0 (L,R) ch, ~192.00 kbps avg - Марченко
Аудио#5: 48 kHz, AC3 Dolby Digital, 2/0 (L,R) ch, ~192.00 kbps avg - Прямостанов
Формат субтитров: softsub (SRT)

Media Info

Формат : Matroska
Версия формата : Version 4 / Version 2
Размер файла : 4,09 Гбайт
Продолжительность : 2 ч. 0 м.
Общий поток : 4875 Кбит/сек
Дата кодирования : UTC 2014-12-12 15:37:20
Программа кодирования : mkvmerge v7.3.0 ('Nouages') 32bit built on Oct 22 2014 18:44:01
Библиотека кодирования : libebml v1.3.0 + libmatroska v1.4.1
DURATION : 01:55:23.382000000
NUMBER_OF_FRAMES : 910
NUMBER_OF_BYTES : 56363
_STATISTICS_WRITING_APP : mkvmerge v7.3.0 ('Nouages') 32bit built on Oct 22 2014 18:44:01
_STATISTICS_WRITING_DATE_UTC : 2014-12-12 15:37:20
_STATISTICS_TAGS : BPS DURATION NUMBER_OF_FRAMES NUMBER_OF_BYTES
Видео
Идентификатор : 1
Формат : AVC
Формат/Информация : Advanced Video Codec
Профиль формата : [email protected]
Параметр CABAC формата : Да
Параметр ReFrames формата : 8 кадров
Идентификатор кодека : V_MPEG4/ISO/AVC
Продолжительность : 2 ч. 0 м.
Битрейт : 3306 Кбит/сек
Ширина : 1024 пикселя
Высота : 552 пикселя
Соотношение сторон : 1,85:1
Режим частоты кадров : Постоянный
Частота кадров : 23,976 кадра/сек
Цветовое пространство : YUV
Субдискретизация насыщенности : 4:2:0
Битовая глубина : 8 бит
Тип развёртки : Прогрессивная
Бит/(Пиксели*Кадры) : 0.244
Размер потока : 2,77 Гбайт (68%)
Библиотека кодирования : x264 core 142 r2431 ac76440
Настройки программы : cabac=1 / ref=8 / deblock=1:-3:-3 / analyse=0x3:0x113 / me=umh / subme=11 / psy=1 / psy_rd=0.95:0.15 / mixed_ref=1 / me_range=32 / chroma_me=1 / trellis=2 / 8x8dct=1 / cqm=0 / deadzone=21,11 / fast_pskip=0 / chroma_qp_offset=-3 / threads=12 / lookahead_threads=3 / sliced_threads=0 / nr=0 / decimate=1 / interlaced=0 / bluray_compat=0 / constrained_intra=0 / bframes=10 / b_pyramid=2 / b_adapt=2 / b_bias=0 / direct=1 / weightb=1 / open_gop=0 / weightp=2 / keyint=250 / keyint_min=23 / scenecut=40 / intra_refresh=0 / rc=crf / mbtree=0 / crf=18.5 / qcomp=0.60 / qpmin=0 / qpmax=69 / qpstep=4 / ip_ratio=1.40 / pb_ratio=1.30 / aq=1:1.00
Язык : English
Default : Да
Forced : Нет
DURATION : 02:00:01.403000000
NUMBER_OF_FRAMES : 172661
NUMBER_OF_BYTES : 3060507181
_STATISTICS_WRITING_APP : mkvmerge v7.3.0 ('Nouages') 32bit built on Oct 22 2014 18:44:01
_STATISTICS_WRITING_DATE_UTC : 2014-12-12 15:37:20
_STATISTICS_TAGS : BPS DURATION NUMBER_OF_FRAMES NUMBER_OF_BYTES
Аудио #1
Идентификатор : 2
Формат : AC-3
Формат/Информация : Audio Coding 3
Расширение режима : CM (complete main)
Параметр Endianness формата : Big
Идентификатор кодека : A_AC3
Продолжительность : 2 ч. 0 м.
Вид битрейта : Постоянный
Битрейт : 448 Кбит/сек
Каналы : 6 каналов
Расположение каналов : Front: L C R, Side: L R, LFE
Частота : 48,0 КГц
Битовая глубина : 16 бит
Метод сжатия : С потерями
Размер потока : 385 Мбайт (9%)
Заголовок : Mihalev DD AC3 5.1 @ 448kbps
Язык : Russian
Default : Да
Forced : Нет
Аудио #2
Идентификатор : 3
Формат : AC-3
Формат/Информация : Audio Coding 3
Расширение режима : CM (complete main)
Параметр Endianness формата : Big
Идентификатор кодека : A_AC3
Продолжительность : 2 ч. 0 м.
Вид битрейта : Постоянный
Битрейт : 448 Кбит/сек
Каналы : 6 каналов
Расположение каналов : Front: L C R, Side: L R, LFE
Частота : 48,0 КГц
Битовая глубина : 16 бит
Метод сжатия : С потерями
Размер потока : 385 Мбайт (9%)
Заголовок : Gorchakov DD AC3 5.1 @ 448 kbps
Язык : Russian
Default : Нет
Forced : Нет
Аудио #3
Идентификатор : 4
Формат : AC-3
Формат/Информация : Audio Coding 3
Профиль формата : Dolby Digital
Расширение режима : CM (complete main)
Параметр Endianness формата : Big
Идентификатор кодека : A_AC3
Продолжительность : 2 ч. 0 м.
Вид битрейта : Постоянный
Битрейт : 192 Кбит/сек
Каналы : 2 канала
Расположение каналов : Front: L R
Частота : 48,0 КГц
Битовая глубина : 16 бит
Метод сжатия : С потерями
Размер потока : 165 Мбайт (4%)
Заголовок : Dohalov DD AC3 2.0 @ 192 kbps
Язык : Russian
Default : Нет
Forced : Нет
Аудио #4
Идентификатор : 5
Формат : AC-3
Формат/Информация : Audio Coding 3
Расширение режима : CM (complete main)
Параметр Endianness формата : Big
Идентификатор кодека : A_AC3
Продолжительность : 2 ч. 0 м.
Вид битрейта : Постоянный
Битрейт : 192 Кбит/сек
Каналы : 2 канала
Расположение каналов : Front: L R
Частота : 48,0 КГц
Битовая глубина : 16 бит
Метод сжатия : С потерями
Размер потока : 165 Мбайт (4%)
Заголовок : Marchenko DD AC3 2.0 @ 192 kbps
Язык : Russian
Default : Нет
Forced : Нет
Аудио #5
Идентификатор : 6
Формат : AC-3
Формат/Информация : Audio Coding 3
Расширение режима : CM (complete main)
Параметр Endianness формата : Big
Идентификатор кодека : A_AC3
Продолжительность : 2 ч. 0 м.
Вид битрейта : Постоянный
Битрейт : 192 Кбит/сек
Каналы : 2 канала
Расположение каналов : Front: L R
Частота : 48,0 КГц
Битовая глубина : 16 бит
Метод сжатия : С потерями
Размер потока : 165 Мбайт (4%)
Заголовок : Pryamostanov DD AC3 2.0 @ 192 kbps
Язык : Russian
Default : Нет
Forced : Нет
Текст
Идентификатор : 7
Формат : UTF-8
Идентификатор кодека : S_TEXT/UTF8
Идентификатор кодека/Информация : UTF-8 Plain Text
Язык : Russian
Default : Нет
Forced : Нет

log x.264

avs [info]: 1024x552p 1:1 @ 24000/1001 fps (cfr)
x264 [info]: using SAR=1/1
x264 [info]: using cpu capabilities: MMX2 SSE2Fast SSSE3 SSE4.2 AVX XOP FMA4 FMA3 LZCNT BMI1
x264 [info]: profile High, level 4.1
x264 [info]: frame I:1578 Avg QP:18.00 size: 93105
x264 [info]: frame P:35718 Avg QP:19.04 size: 35646
x264 [info]: frame B:135365 Avg QP:21.40 size: 12118
x264 [info]: consecutive B-frames: 1.8% 4.4% 5.4% 13.4% 15.7% 43.9% 7.2% 3.0% 2.3% 2.2% 0.6%
x264 [info]: mb I I16..4: 11.6% 70.2% 18.3%
x264 [info]: mb P I16..4: 0.5% 16.6% 1.5% P16..4: 28.8% 37.0% 14.6% 0.0% 0.0% skip: 1.0%
x264 [info]: mb B I16..4: 0.0% 1.9% 0.1% B16..8: 38.2% 22.9% 4.0% direct: 5.9% skip:27.0% L0:39.5% L1:43.4% BI:17.0%
x264 [info]: 8x8 transform intra:87.6% inter:51.4%
x264 [info]: coded y,uvDC,uvAC intra: 97.8% 73.9% 40.3% inter: 31.3% 14.9% 0.8%
x264 [info]: i16 v,h,dc,p: 8% 5% 31% 56%
x264 [info]: i8 v,h,dc,ddl,ddr,vr,hd,vl,hu: 13% 7% 13% 9% 12% 12% 10% 11% 12%
x264 [info]: i4 v,h,dc,ddl,ddr,vr,hd,vl,hu: 16% 7% 4% 9% 15% 15% 12% 12% 11%
x264 [info]: i8c dc,h,v,p: 31% 30% 23% 17%
x264 [info]: Weighted P-Frames: Y:11.7% UV:7.4%
x264 [info]: ref P L0: 44.3% 11.8% 18.9% 6.9% 6.3% 4.4% 4.3% 2.6% 0.4% 0.0%
x264 [info]: ref B L0: 77.6% 10.7% 5.0% 2.8% 2.1% 1.2% 0.5%
x264 [info]: ref B L1: 93.8% 6.2%
x264 [info]: kb/s:3399.90

Скриншоты

Яндекс.Метрика
Рейтинг@Mail.ru