Бивень / Tusk (Кевин Смит / Kevin Smith) [2014 г., триллер, ужасы, комедия, WEB-DLRip] Dub (iTunes)

 

Создавать темы 14-Дек-2014 18:47

-Бивень / Tusk-- Производство: США
Год выпуска: 2014 г.
Жанр: триллер, ужасы, комедия
Продолжительность: 01:41:25
Мировая премьера: 6 сентября 2014
Российская премьера: 9 октября 2014, «Наше Кино»
Дата выхода DVD: 11 декабря 2014, «CD Land»
Перевод: Профессиональный (полное дублирование) [iTunes]-Режиссер: Кевин Смит / Kevin Smith
В ролях: Майкл Паркс, Джастин Лонг, Дженезис Родригез, Хэйли Джоэл Осмент, Джонни Депп, Харли Моренштейн, Ральф Гармен, Дженнифер Швалбах Смит, Харли Куинн Смит, Лили-Роуз Мелоди Депп-Описание: Журналист Уоллес Брайтон уехал брать интервью и исчез навсегда. Его друг вместе с девушкой Уоллеса отправляется на поиски. Поиски приводят пару к полицейскому в отставке, который много лет занимался поиском пропавших людей и который рассказывает им, что есть некая закономерность в пропаже людей. Люди пропадают, а потом находят их обезображенные кости. Полицейский думает, что все это дело рук серийного убийцы. Считая, что Уоллес каким-то образом попал в его руки, троица идет по следу маньяка, даже не представляя себе, что правда, которую им предстоит узнать, настолько ужасна, что в нее просто невозможно поверить.- -Качество видео: WEB-DLRip
Контейнер: AVI
Видео кодек: XviD
Аудио кодек: AC3
Видео: 720x304 (2.37:1), 24.000 fps, XviD build 50 ~1667 kbps avg, 0.32 bit/pixel
Аудио: 48 kHz, AC3 Dolby Digital, 3/2 (L,C,R,l,r) + LFE ch, ~384 kbps
Cубтитры: отсутствуют

Media Info

General
Complete name : D:\Bivenj.2014.D.WEBDLRip.avi
Format : AVI
Format/Info : Audio Video Interleave
File size : 1.46 GiB
Duration : 1h 41mn
Overall bit rate : 2 061 Kbps
Writing application : VirtualDubMod 1.5.10.3 | www.virtualdub-fr.org || (build 2550/release)
Writing library : VirtualDubMod build 2550/release
Video
ID : 0
Format : MPEG-4 Visual
Format profile : Advanced [email protected]
Format settings, BVOP : 2
Format settings, QPel : No
Format settings, GMC : No warppoints
Format settings, Matrix : Default (MPEG)
Codec ID : XVID
Codec ID/Hint : XviD
Duration : 1h 41mn
Bit rate : 1 668 Kbps
Width : 720 pixels
Height : 304 pixels
Display aspect ratio : 2.35:1
Frame rate : 24.000 fps
Color space : YUV
Chroma subsampling : 4:2:0
Bit depth : 8 bits
Scan type : Progressive
Compression mode : Lossy
Bits/(Pixel*Frame) : 0.317
Stream size : 1.18 GiB (81%)
Writing library : XviD 1.2.1 (UTC 2008-12-04)
Audio
ID : 1
Format : AC-3
Format/Info : Audio Coding 3
Mode extension : CM (complete main)
Format settings, Endianness : Big
Codec ID : 2000
Duration : 1h 41mn
Bit rate mode : Constant
Bit rate : 384 Kbps
Channel(s) : 6 channels
Channel positions : Front: L C R, Side: L R, LFE
Sampling rate : 48.0 KHz
Bit depth : 16 bits
Compression mode : Lossy
Stream size : 279 MiB (19%)
Alignment : Split accross interleaves
Interleave, duration : 42 ms (1.00 video frame)
Interleave, preload duratio : 500 ms

Скриншоты

Яндекс.Метрика
Рейтинг@Mail.ru