База «Клейтон» / Basic (Джон МакТирнан / John McTiernan) [2003 г., триллер, драма, детектив, BDRip, 720р] Dub + MVO (SPDigital, LDV, Unknoun, PTP) + AVO (Володарский, Живов) + VO (Гаевский) + original (Eng) + Sub (Rus, Eng)

 

Создавать темы 14-Дек-2014 18:45

--База «Клейтон» / Basic-- Год выпуска: 2003
Производство: США, Phoenix Pictures, Intermedia Films
Жанр: триллер, драма, детектив
Продолжительность: 01:38:34
Перевод 1: Профессиональный (полное дублирование) лицензия
Перевод 2: Профессиональный (многоголосый закадровый) SP Digital
Перевод 3: Профессиональный (многоголосый закадровый) LDV
Перевод 4: Профессиональный (многоголосый закадровый) Неизвестный
Перевод 5: Профессиональный (многоголосый закадровый) Россия
Перевод 6: Авторский (одноголосый закадровый) Володарский
Перевод 7: Авторский (одноголосый закадровый) Живов
Перевод 8: Любительский (одноголосый закадровый) Гаевский (нецензурный)
Оригинальный аудиопоток: английский
Субтитры: Русские, английские
Навигация по главам: сохранена
Режиссер: Джон МакТирнан / John McTiernan
В ролях: Джон Траволта, Сэмюэл Л. Джексон, Конни Нилсен, Тимоти Дэйли, Джованни Рибизи, Брайан Ван Холт, Тэй Диггз, Дэш Майхок, Кристиан де ла Фуэнте, Розелин Санчес
Описание: Форт «Клейтон» — последняя американская военная база на Панамском канале. Во время секретной тренировочной миссии ураган настигает в джунглях группу спецназовцев и их легендарного инструктора Нэйтана Веста. Противоречивые показания двух вернувшихся на базу солдат ещё больше запутывают дело. Для расследования обстоятельств мистического исчезновения отряда приглашают агента отдела по борьбе с наркотиками Харди. Те, кто уцелел, не могут объяснить — в наркотиках ли дело… Или в чем-то другом. Все лгут…
Источник/Качество: BDRip, 720р | Кинопоиск |
Формат: MKV
Видео кодек: H.264
Аудио кодек: AC3
Видео: MPEG4 Video (H264) 1280x536, 23.976fps, 3 294 Кb/с, 0.200 bt/px
Аудио 1: 48 kHz, AC3, 2/0 (L,R) ~192.00 kbps avg – дубляж
Аудио 2: 48 kHz, AC3, 3/2 (L,C,R,l,r) + LFE ch, ~448.00 kbps avg – SP Digital
Аудио 3: 48 kHz, AC3, 3/2 (L,C,R,l,r) + LFE ch, ~448.00 kbps avg – LDV
Аудио 4: 48 kHz, AC3, 3/2 (L,C,R,l,r) + LFE ch, ~384.00 kbps avg – закадровый
Аудио 4: 48 kHz, AC3, 2/0 (L,R) ~192.00 kbps avg – Росиия
Аудио 5: 48 kHz, AC3, 3/2 (L,C,R,l,r) + LFE ch, ~640.00 kbps avg – Володарский
Аудио 6: 48 kHz, AC3, 3/2 (L,C,R,l,r) + LFE ch, ~448.00 kbps avg – Живов
Аудио 7: 48 kHz, AC3, 3/2 (L,C,R,l,r) + LFE ch, ~448.00 kbps avg – Гаевский
Аудио 8: 48 kHz, AC3, 3/2 (L,C,R,l,r) + LFE ch, ~448.00 kbps avg – оригинал

За перевод Володарского большое спасибо пользователям форума hdtracker.org:
Xerman13; Dunhill200; Лексал; С.Чистобаев; Luka69; Hattori Hanzo; Диммон; kondratzx; Role; AndreyTula; KpucTo161; Dr. Destructo; Gross1978
За остальные дороги спасибо tymoxa, sergey_n, AndreyTula, budulaj965
Релиз обновлен 13.12.2014 в 20:30. Заменен видеоряд, добавлена дорога РТР.

Лог х.264

x264 [info]: frame I:934 Avg QP:16.92 size: 62171
x264 [info]: frame P:31972 Avg QP:18.26 size: 32134
x264 [info]: frame B:108317 Avg QP:20.25 size: 13479
x264 [info]: consecutive B-frames: 3.5% 3.4% 7.8% 13.3% 15.7% 45.2% 6.5% 2.0% 1.4% 1.1%
x264 [info]: mb I I16..4: 10.1% 83.1% 6.8%
x264 [info]: mb P I16..4: 1.1% 21.5% 1.1% P16..4: 29.7% 34.1% 7.6% 0.5% 0.0% skip: 4.4%
x264 [info]: mb B I16..4: 0.1% 1.9% 0.1% B16..8: 41.7% 22.0% 2.5% direct: 7.0% skip:24.6% L0:48.4% L1:45.7% BI: 6.0%
x264 [info]: 8x8 transform intra:89.7% inter:66.1%
x264 [info]: coded y,uvDC,uvAC intra: 92.2% 84.9% 53.6% inter: 32.8% 34.8% 5.1%
x264 [info]: i16 v,h,dc,p: 20% 9% 9% 63%
x264 [info]: i8 v,h,dc,ddl,ddr,vr,hd,vl,hu: 9% 6% 7% 10% 14% 14% 13% 12% 14%
x264 [info]: i4 v,h,dc,ddl,ddr,vr,hd,vl,hu: 11% 6% 3% 9% 16% 16% 14% 12% 13%
x264 [info]: i8c dc,h,v,p: 39% 25% 18% 19%
x264 [info]: Weighted P-Frames: Y:30.7% UV:23.9%
x264 [info]: ref P L0: 38.6% 6.5% 18.4% 8.3% 6.7% 4.9% 4.4% 2.7% 2.5% 2.1% 2.0% 1.8% 0.7% 0.2%
x264 [info]: ref B L0: 61.5% 14.3% 8.1% 4.3% 3.2% 2.7% 2.2% 1.4% 1.2% 0.8% 0.3%
x264 [info]: ref B L1: 89.8% 10.2%
x264 [info]: kb/s:3457.27
x264 [total]: encoded 141223 frames, 1.62 fps, 3457.27 kb/s

Media Info

Общее
Уникальный идентификатор : 182847561972401780843870509447249770749 (0x898F28D4147EFE86A1DE557BBFBDB8FD)
Полное имя : F:\Фильмы архив\__по актерам\Джон Траволта\База «Клейтон» (Basic, 2003, BDRip, 720p) dub-4pm-Volodarsky-Jivov-Gaevsky-eng.mkv
Формат : Matroska
Версия формата : Version 2
Размер файла : 4,88 Гбайт
Продолжительность : 1 ч. 38 м.
Общий поток : 7083 Кбит/сек
Название фильма : rip by Gross
Дата кодирования : UTC 2014-12-12 20:21:45
Программа кодирования : mkvmerge v4.7.0 ('Just Like You Imagined') сборка от Apr 21 2011 01:13:14
Библиотека кодирования : libebml v1.2.0 + libmatroska v1.1.0
Видео
Идентификатор : 1
Формат : AVC
Формат/Информация : Advanced Video Codec
Профиль формата : [email protected]
Параметр CABAC формата : Да
Параметр ReFrames формата : 12 кадров
Идентификатор кодека : V_MPEG4/ISO/AVC
Продолжительность : 1 ч. 38 м.
Битрейт : 3294 Кбит/сек
Ширина : 1280 пикселей
Высота : 536 пикселей
Соотношение сторон : 2,40:1
Режим частоты кадров : Постоянный
Частота кадров : 23,976 кадра/сек
Цветовое пространство : YUV
Субдискретизация насыщенности : 4:2:0
Битовая глубина : 8 бит
Тип развёртки : Прогрессивная
Бит/(Пиксели*Кадры) : 0.200
Размер потока : 2,27 Гбайт (47%)
Библиотека кодирования : x264 core 130 r2273 b3065e6
Настройки программы : cabac=1 / ref=12 / deblock=1:-3:-3 / analyse=0x3:0x133 / me=umh / subme=11 / psy=1 / psy_rd=1.05:0.20 / mixed_ref=1 / me_range=32 / chroma_me=1 / trellis=2 / 8x8dct=1 / cqm=0 / deadzone=21,11 / fast_pskip=0 / chroma_qp_offset=-3 / threads=2 / lookahead_threads=1 / sliced_threads=0 / nr=0 / decimate=1 / interlaced=0 / bluray_compat=0 / constrained_intra=0 / bframes=9 / b_pyramid=2 / b_adapt=2 / b_bias=0 / direct=1 / weightb=1 / open_gop=0 / weightp=2 / keyint=250 / keyint_min=23 / scenecut=40 / intra_refresh=0 / rc=crf / mbtree=0 / crf=20.0 / qcomp=0.60 / qpmin=0 / qpmax=69 / qpstep=4 / ip_ratio=1.40 / pb_ratio=1.30 / aq=1:1.00
Язык : English
Default : Да
Forced : Нет
Аудио #1
Идентификатор : 2
Формат : AC-3
Формат/Информация : Audio Coding 3
Расширение режима : CM (complete main)
Параметр Endianness формата : Big
Идентификатор кодека : A_AC3
Продолжительность : 1 ч. 38 м.
Вид битрейта : Постоянный
Битрейт : 192 Кбит/сек
Каналы : 2 канала
Расположение каналов : Front: L R
Частота : 48,0 КГц
Битовая глубина : 16 бит
Метод сжатия : С потерями
Задержка видео : 100 мс.
Размер потока : 135 Мбайт (3%)
Заголовок : dub (Lisense)
Язык : Russian
Default : Да
Forced : Да
Аудио #2
Идентификатор : 3
Формат : AC-3
Формат/Информация : Audio Coding 3
Расширение режима : CM (complete main)
Параметр Endianness формата : Big
Идентификатор кодека : A_AC3
Продолжительность : 1 ч. 38 м.
Вид битрейта : Постоянный
Битрейт : 448 Кбит/сек
Каналы : 6 каналов
Расположение каналов : Front: L C R, Side: L R, LFE
Частота : 48,0 КГц
Битовая глубина : 16 бит
Метод сжатия : С потерями
Размер потока : 316 Мбайт (6%)
Заголовок : pm (CP-Digital)
Язык : Russian
Default : Нет
Forced : Нет
Аудио #3
Идентификатор : 4
Формат : AC-3
Формат/Информация : Audio Coding 3
Расширение режима : CM (complete main)
Параметр Endianness формата : Big
Идентификатор кодека : A_AC3
Продолжительность : 1 ч. 38 м.
Вид битрейта : Постоянный
Битрейт : 448 Кбит/сек
Каналы : 6 каналов
Расположение каналов : Front: L C R, Side: L R, LFE
Частота : 48,0 КГц
Битовая глубина : 16 бит
Метод сжатия : С потерями
Размер потока : 316 Мбайт (6%)
Заголовок : pm (LDV)
Язык : Russian
Default : Нет
Forced : Нет
Аудио #4
Идентификатор : 5
Формат : AC-3
Формат/Информация : Audio Coding 3
Расширение режима : CM (complete main)
Параметр Endianness формата : Big
Идентификатор кодека : A_AC3
Продолжительность : 1 ч. 38 м.
Вид битрейта : Постоянный
Битрейт : 384 Кбит/сек
Каналы : 6 каналов
Расположение каналов : Front: L C R, Side: L R, LFE
Частота : 48,0 КГц
Битовая глубина : 16 бит
Метод сжатия : С потерями
Размер потока : 271 Мбайт (5%)
Заголовок : pm (Unknoun)
Язык : Russian
Default : Нет
Forced : Нет
Аудио #5
Идентификатор : 6
Формат : AC-3
Формат/Информация : Audio Coding 3
Расширение режима : CM (complete main)
Параметр Endianness формата : Big
Идентификатор кодека : A_AC3
Продолжительность : 1 ч. 38 м.
Вид битрейта : Постоянный
Битрейт : 192 Кбит/сек
Каналы : 2 канала
Расположение каналов : Front: L R
Частота : 48,0 КГц
Битовая глубина : 16 бит
Метод сжатия : С потерями
Размер потока : 135 Мбайт (3%)
Заголовок : pm (Россия)
Язык : Russian
Default : Нет
Forced : Нет
Аудио #6
Идентификатор : 7
Формат : AC-3
Формат/Информация : Audio Coding 3
Расширение режима : CM (complete main)
Параметр Endianness формата : Big
Идентификатор кодека : A_AC3
Продолжительность : 1 ч. 38 м.
Вид битрейта : Постоянный
Битрейт : 640 Кбит/сек
Каналы : 6 каналов
Расположение каналов : Front: L C R, Side: L R, LFE
Частота : 48,0 КГц
Битовая глубина : 16 бит
Метод сжатия : С потерями
Размер потока : 451 Мбайт (9%)
Заголовок : A1 (Volodarsky)
Язык : Russian
Default : Нет
Forced : Нет
Аудио #7
Идентификатор : 8
Формат : AC-3
Формат/Информация : Audio Coding 3
Расширение режима : CM (complete main)
Параметр Endianness формата : Big
Идентификатор кодека : A_AC3
Продолжительность : 1 ч. 38 м.
Вид битрейта : Постоянный
Битрейт : 448 Кбит/сек
Каналы : 6 каналов
Расположение каналов : Front: L C R, Side: L R, LFE
Частота : 48,0 КГц
Битовая глубина : 16 бит
Метод сжатия : С потерями
Размер потока : 316 Мбайт (6%)
Заголовок : A1 (Jivov)
Язык : Russian
Default : Нет
Forced : Нет
Аудио #8
Идентификатор : 9
Формат : AC-3
Формат/Информация : Audio Coding 3
Расширение режима : CM (complete main)
Параметр Endianness формата : Big
Идентификатор кодека : A_AC3
Продолжительность : 1 ч. 38 м.
Вид битрейта : Постоянный
Битрейт : 448 Кбит/сек
Каналы : 6 каналов
Расположение каналов : Front: L C R, Side: L R, LFE
Частота : 48,0 КГц
Битовая глубина : 16 бит
Метод сжатия : С потерями
Размер потока : 316 Мбайт (6%)
Заголовок : A1 (Gaevsky)
Язык : Russian
Default : Нет
Forced : Нет
Аудио #9
Идентификатор : 10
Формат : AC-3
Формат/Информация : Audio Coding 3
Расширение режима : CM (complete main)
Параметр Endianness формата : Big
Идентификатор кодека : A_AC3
Продолжительность : 1 ч. 38 м.
Вид битрейта : Постоянный
Битрейт : 448 Кбит/сек
Каналы : 6 каналов
Расположение каналов : Front: L C R, Side: L R, LFE
Частота : 48,0 КГц
Битовая глубина : 16 бит
Метод сжатия : С потерями
Размер потока : 316 Мбайт (6%)
Заголовок : original
Язык : English
Default : Нет
Forced : Нет
Текст #1
Идентификатор : 11
Формат : UTF-8
Идентификатор кодека : S_TEXT/UTF8
Идентификатор кодека/Информация : UTF-8 Plain Text
Язык : Russian
Default : Нет
Forced : Нет
Текст #2
Идентификатор : 12
Формат : UTF-8
Идентификатор кодека : S_TEXT/UTF8
Идентификатор кодека/Информация : UTF-8 Plain Text
Язык : English
Default : Нет
Forced : Нет
Меню
00:00:00.000 : :Chapter 01
00:08:44.941 : :Chapter 02
00:18:42.746 : :Chapter 03
00:27:16.801 : :Chapter 04
00:37:45.888 : :Chapter 05
00:44:50.437 : :Chapter 06
00:54:50.078 : :Chapter 07
01:01:04.369 : :Chapter 08
01:06:34.156 : :Chapter 09
01:14:50.652 : :Chapter 10
01:24:17.886 : :Chapter 11
01:34:08.142 : :Chapter 12

Скриншоты

- -
Яндекс.Метрика
Рейтинг@Mail.ru