[ Сегодня на трекере фрилич! Идет свободное скачивание без начисления Download ]

Грейспоинт / Gracepoint (Сезон 1 / Полный / Серии: 10 из 10) (Джеймс Стронг / James Strong, ...) [2014г., детектив, ... WEB-DLRip] MVO (NewStudio) + Original (Eng)

 

Создавать темы 14-Дек-2014 18:22

Грейспоинт / Gracepoint- Русское название: Грейспоинт
Оригинальное название: Gracepoint
Страна: США
Год выпуска: 2014
Жанр: детектив, ...-Озвучка: Студия |NewStudio|
Перевод: Многоголосый закадровый, профессиональный
Оригинальный аудиопоток: английский-Перевод: Наталья Черненко
Постер: Vortex-Премьера (мир): 2 октября 2014, ...-Режиссер: Джеймс Стронг / James Strong, Эрос Лин / Euros Lyn, Дэвид Петрарка / David Petrarca, ...
В главных ролях: Кевин Зегерс, Сара-Джейн Поттс, Дэвид Теннант, Анна Ганн, Джессика Лукас, Джек Ирвин, Керин Мотт, Адам Рейд, Алисен Даун, Дарси Лори, ...-Описание фильма:
Когда маленького мальчика находят мертвым на пляже в небольшом калифорнийском приморском городке, полиция начинает расследование. После того, как выясняется, что это было убийство, в СМИ начинается информационное безумие, сконцентрированное на этой трагедии, что коренным образом меняет как жизнь семьи мальчика, так и жизнь всех жителей города.-Сезон: 1
Серии: 10 из 10 серий
Продолжительность: ~ 00:45:00 мин серия-Качество видео: WEB-DLRip
Формат: AVI
Видеокодек: XviD
Аудиокодек: Mp3
Видео: MPEG-4 Visual at 1434 Кбит/сек: 720 x 400 (1.800) at 23.976 fps, 0.21 Бит/Пиксели
Аудио Rus: MPEG Audio at 128 Кбит/сек, 2 канала, 48,0 КГц |NewStudio|
Аудио Eng: MPEG Audio at 128 Кбит/сек: 2 канала, 48,0 КГц |Original|
- -

MediaInfo:

Общее
Полное имя                               : E:\_Сериалы\_Сериалы\Грейспоинт\Gracepoint.s01.NewStudio\Gracepoint.s01e01.WEBDLRip.NewStudio.TV.avi
Формат                                   : AVI
Формат/Информация                        : Audio Video Interleave
Размер файла                             : 550 Мбайт
Продолжительность                        : 45 м.
Общий поток                              : 1704 Кбит/сек
Программа кодирования                    : VirtualDubMod 1.5.10.2 (build 2540/release)
Библиотека кодирования                   : VirtualDubMod build 2540/release
Видео
Идентификатор                            : 0
Формат                                   : MPEG-4 Visual
Профиль формата                          : Advanced [email protected]
Параметр BVOP формата                    : Нет
Параметр QPel формата                    : Нет
Параметр GMC формата                     : Без точки перехода
Параметр матрицы формата                 : Default (H.263)
Идентификатор кодека                     : XVID
Идентификатор кодека/Подсказка           : XviD
Продолжительность                        : 45 м.
Битрейт                                  : 1434 Кбит/сек
Ширина                                   : 720 пикселей
Высота                                   : 400 пикселей
Соотношение сторон                       : 16:9
Частота кадров                           : 23,976 кадра/сек
Цветовое пространство                    : YUV
Субдискретизация насыщенности            : 4:2:0
Битовая глубина                          : 8 бит
Тип развёртки                            : Прогрессивная
Метод сжатия                             : С потерями
Бит/(Пиксели*Кадры)                      : 0.208
Размер потока                            : 463 Мбайт (84%)
Библиотека кодирования                   : XviD 1.2.1 (UTC 2008-12-04)
Аудио #1
Идентификатор                            : 1
Формат                                   : MPEG Audio
Версия формата                           : Version 1
Профиль формата                          : Layer 3
Режим                                    : Joint stereo
Расширение режима                        : MS Stereo
Идентификатор кодека                     : 55
Идентификатор кодека/Подсказка           : MP3
Продолжительность                        : 45 м.
Вид битрейта                             : Постоянный
Битрейт                                  : 128 Кбит/сек
Каналы                                   : 2 канала
Частота                                  : 48,0 КГц
Метод сжатия                             : С потерями
Размер потока                            : 41,3 Мбайт (8%)
Выравнивание                             : Соединение по промежуткам
Продолжительность промежутка             : 42  мс. (1,00 видеокадр)
Время предзагрузки промежутка            : 504  мс.
Аудио #2
Идентификатор                            : 2
Формат                                   : MPEG Audio
Версия формата                           : Version 1
Профиль формата                          : Layer 3
Режим                                    : Joint stereo
Идентификатор кодека                     : 55
Идентификатор кодека/Подсказка           : MP3
Продолжительность                        : 45 м.
Вид битрейта                             : Постоянный
Битрейт                                  : 128 Кбит/сек
Каналы                                   : 2 канала
Частота                                  : 48,0 КГц
Метод сжатия                             : С потерями
Размер потока                            : 41,3 Мбайт (8%)
Выравнивание                             : Соединение по промежуткам
Продолжительность промежутка             : 42  мс. (1,00 видеокадр)
Время предзагрузки промежутка            : 504  мс.
-

Скриншот c названием фильма

-Скриншоты:
-

Еще

-

Как закачать отдельный файл

1. Открыть торрент
2. Снять галки с тех файлов торрента, которые мы не хотим закачивать. Оставляем только на нужных нам файлах (файле).
3. Нажать О.К.
В клиенте utorrent
Инструкция
1) Открыть торрент

2) Снять галки с тех файлов торрента, которые мы не хотим закачивать:
* либо вручную, снимая с каждого файла галку( скрин №1)
* либо, нажав кнопку "Снять метки (Select None)", сняв сразу со всех файлов(скрин №2)
№1

№2

Оставляем только на нужных нам файлах (файле).

3)Нажать О.К
-Добавлена десятая, заключительная, серия первого сезона
Яндекс.Метрика
Рейтинг@Mail.ru