Птичка на проводе / Bird on a Wire (Джон Бэдэм / John Badham) [1990 г., Приключения, комедия, HDTVRip-AVC] AVO (Михалев, Гаврилов, Иванов) + Subs (Rus)

 

Создавать темы 14-Дек-2014 18:08

Птичка на проводе / Bird on a Wire
«He's every woman's dream and one woman's nightmare»
- Год выпуска: 1990
Производство: США
Жанр: Приключения, комедия
Продолжительность: 01:45:46
Перевод: Авторский (одноголосый, закадровый) Михалев, Гаврилов, Иванов
Субтитры: русские
Режиссер: Джон Бэдэм / John Badham
В ролях: Мел Гибсон / Mel Gibson, Голди Хоун / Goldie Hawn, Дэвид Кэррэдин / David Carradine, Билл Дьюк / Bill Duke, Стивен Тоболовски / Stephen Tobolowsky, Джоэн Северэнс / Joan Severance
Описание: Дела Рика Джармина, живущего тайной жизнью по специально разработанной ФБР программе защиты свидетелей, складывается не лучшим образом. Дело в том, что пятнадцать лет назад он дал показания против полицейского, промышляющего торговлей наркотиками, что позволило усадить негодяя за решетку. Преступник, отсидевший свой срок, решает отомстить «стукачу» и начинает охоту на Джармина. Случайно Рик сталкивается с Мэриэнн Грэйвз, своей бывшей невестой. Мэриэнн, естественно, узнает его, что облегчает задачу убийцам, следующим за Джармином по пятам. Теперь бывшим возлюбленным вместе предстоит спасаться от злодеев, но именно это помогает им вернуть утраченную любовь.

Качество видео: HDTVRip
Контейнер: MKV
Видео кодек: MPEG4-AVC / H.264
Видео: 1056x448 / 2928 kbps / 23,976 fps / 2,35:1 / High Profile 4.1
Аудио#1: 48 kHz, AC3 Dolby Digital, 2/0 (L,R) ch, ~192.00 kbps avg - Михалев
Аудио#2: 48 kHz, AC3 Dolby Digital, 2/0 (L,R) ch, ~192.00 kbps avg - Гаврилов
Аудио#3: 48 kHz, AC3 Dolby Digital, 2/0 (L,R) ch, ~192.00 kbps avg - Иванов
Формат субтитров: softsub (SRT)

Media Info

Формат : Matroska
Версия формата : Version 4 / Version 2
Размер файла : 2,59 Гбайт
Продолжительность : 1 ч. 45 м.
Общий поток : 3506 Кбит/сек
Название фильма : Bird On A Wire.1990.HDTVRip-AVC.Mihalev.Gavrilov.Ivanov -=anton966=-
Дата кодирования : UTC 2014-12-13 22:45:05
Программа кодирования : mkvmerge v7.3.0 ('Nouages') 32bit built on Oct 22 2014 18:44:01
Библиотека кодирования : libebml v1.3.0 + libmatroska v1.4.1
DURATION : 01:42:12.251000000
NUMBER_OF_FRAMES : 1109
NUMBER_OF_BYTES : 81865
_STATISTICS_WRITING_APP : mkvmerge v7.3.0 ('Nouages') 32bit built on Oct 22 2014 18:44:01
_STATISTICS_WRITING_DATE_UTC : 2014-12-13 22:45:05
_STATISTICS_TAGS : BPS DURATION NUMBER_OF_FRAMES NUMBER_OF_BYTES
Видео
Идентификатор : 1
Формат : AVC
Формат/Информация : Advanced Video Codec
Профиль формата : [email protected]
Параметр CABAC формата : Да
Параметр ReFrames формата : 8 кадров
Идентификатор кодека : V_MPEG4/ISO/AVC
Продолжительность : 1 ч. 45 м.
Битрейт : 2861 Кбит/сек
Ширина : 1056 пикселей
Высота : 448 пикселей
Соотношение сторон : 2,35:1
Режим частоты кадров : Постоянный
Частота кадров : 25,000 кадров/сек
Цветовое пространство : YUV
Субдискретизация насыщенности : 4:2:0
Битовая глубина : 8 бит
Тип развёртки : Прогрессивная
Бит/(Пиксели*Кадры) : 0.242
Размер потока : 2,11 Гбайт (82%)
Заголовок : Bird On A Wire.1990.HDTVRip-AVC (1056x448)
Библиотека кодирования : x264 core 142 r2431 ac76440
Настройки программы : cabac=1 / ref=8 / deblock=1:-3:-3 / analyse=0x3:0x113 / me=umh / subme=11 / psy=1 / psy_rd=1.15:0.15 / mixed_ref=1 / me_range=32 / chroma_me=1 / trellis=2 / 8x8dct=1 / cqm=0 / deadzone=21,11 / fast_pskip=0 / chroma_qp_offset=-3 / threads=12 / lookahead_threads=1 / sliced_threads=0 / nr=0 / decimate=1 / interlaced=0 / bluray_compat=0 / constrained_intra=0 / bframes=6 / b_pyramid=2 / b_adapt=2 / b_bias=0 / direct=1 / weightb=1 / open_gop=0 / weightp=2 / keyint=250 / keyint_min=25 / scenecut=40 / intra_refresh=0 / rc=crf / mbtree=0 / crf=18.5 / qcomp=0.60 / qpmin=0 / qpmax=69 / qpstep=4 / ip_ratio=1.40 / pb_ratio=1.30 / aq=1:1.00
Язык : English
Default : Да
Forced : Нет
DURATION : 01:45:46.440000000
NUMBER_OF_FRAMES : 158661
NUMBER_OF_BYTES : 2322791402
_STATISTICS_WRITING_APP : mkvmerge v7.3.0 ('Nouages') 32bit built on Oct 22 2014 18:44:01
_STATISTICS_WRITING_DATE_UTC : 2014-12-13 22:45:05
_STATISTICS_TAGS : BPS DURATION NUMBER_OF_FRAMES NUMBER_OF_BYTES
Аудио #1
Идентификатор : 2
Формат : AC-3
Формат/Информация : Audio Coding 3
Расширение режима : CM (complete main)
Параметр Endianness формата : Big
Идентификатор кодека : A_AC3
Продолжительность : 1 ч. 45 м.
Вид битрейта : Постоянный
Битрейт : 192 Кбит/сек
Каналы : 2 канала
Расположение каналов : Front: L R
Частота : 48,0 КГц
Битовая глубина : 16 бит
Метод сжатия : С потерями
Размер потока : 145 Мбайт (5%)
Заголовок : Mihalev AC3 2.0 @ 192 kbps
Язык : Russian
Default : Да
Forced : Нет
Аудио #2
Идентификатор : 3
Формат : AC-3
Формат/Информация : Audio Coding 3
Расширение режима : CM (complete main)
Параметр Endianness формата : Big
Идентификатор кодека : A_AC3
Продолжительность : 1 ч. 45 м.
Вид битрейта : Постоянный
Битрейт : 192 Кбит/сек
Каналы : 2 канала
Расположение каналов : Front: L R
Частота : 48,0 КГц
Битовая глубина : 16 бит
Метод сжатия : С потерями
Размер потока : 145 Мбайт (5%)
Заголовок : Gavrilov AC3 2.0 @ 192 kbps
Язык : Russian
Default : Нет
Forced : Нет
Аудио #3
Идентификатор : 4
Формат : AC-3
Формат/Информация : Audio Coding 3
Расширение режима : CM (complete main)
Параметр Endianness формата : Big
Идентификатор кодека : A_AC3
Продолжительность : 1 ч. 45 м.
Вид битрейта : Постоянный
Битрейт : 192 Кбит/сек
Каналы : 2 канала
Расположение каналов : Front: L R
Частота : 48,0 КГц
Битовая глубина : 16 бит
Метод сжатия : С потерями
Размер потока : 145 Мбайт (5%)
Заголовок : Ivanov AC3 2.0 @ 192 kbps
Язык : Russian
Default : Нет
Forced : Нет
Текст
Идентификатор : 5
Формат : UTF-8
Идентификатор кодека : S_TEXT/UTF8
Идентификатор кодека/Информация : UTF-8 Plain Text
Язык : Russian
Default : Нет
Forced : Нет

log x.264

avs [info]: 1056x448p 1:1 @ 25/1 fps (cfr)
x264 [info]: using SAR=1/1
x264 [info]: using cpu capabilities: MMX2 SSE2Fast SSSE3 SSE4.2 AVX XOP FMA4 FMA3 LZCNT BMI1
x264 [info]: profile High, level 4.1
x264 [info]: frame I:1415 Avg QP:18.82 size: 61203
x264 [info]: frame P:38869 Avg QP:19.82 size: 27636
x264 [info]: frame B:118377 Avg QP:22.05 size: 9816
x264 [info]: consecutive B-frames: 3.0% 3.4% 7.5% 41.6% 12.8% 28.8% 2.8%
x264 [info]: mb I I16..4: 2.2% 86.9% 10.9%
x264 [info]: mb P I16..4: 0.3% 18.3% 1.4% P16..4: 29.3% 37.3% 12.9% 0.0% 0.0% skip: 0.5%
x264 [info]: mb B I16..4: 0.0% 2.2% 0.1% B16..8: 40.0% 22.6% 3.2% direct: 6.7% skip:25.1% L0:36.1% L1:45.0% BI:18.9%
x264 [info]: 8x8 transform intra:91.1% inter:60.5%
x264 [info]: coded y,uvDC,uvAC intra: 97.5% 79.7% 40.1% inter: 37.7% 20.5% 1.0%
x264 [info]: i16 v,h,dc,p: 12% 14% 4% 69%
x264 [info]: i8 v,h,dc,ddl,ddr,vr,hd,vl,hu: 9% 8% 6% 10% 14% 14% 12% 13% 14%
x264 [info]: i4 v,h,dc,ddl,ddr,vr,hd,vl,hu: 11% 8% 2% 9% 16% 17% 14% 13% 12%
x264 [info]: i8c dc,h,v,p: 31% 27% 21% 21%
x264 [info]: Weighted P-Frames: Y:17.2% UV:11.0%
x264 [info]: ref P L0: 49.5% 13.6% 16.3% 6.1% 4.5% 3.8% 3.2% 2.4% 0.5% 0.0%
x264 [info]: ref B L0: 88.8% 5.9% 2.3% 1.1% 0.9% 0.6% 0.4%
x264 [info]: ref B L1: 97.2% 2.8%
x264 [info]: kb/s:2927.99

Скриншоты

Яндекс.Метрика
Рейтинг@Mail.ru