Великий уравнитель / The Equalizer (Антуан Фукуа) [2014 г., боевик, триллер, криминал, BDRip 720p] DUB |Чистый звук

 

Создавать темы 14-Дек-2014 13:27

-Великий уравнитель / The Equalizer- Год выпуска: 2014
Страна: США
Жанр: боевик, триллер, криминал
Продолжительность: 02:12:31
Перевод: Профессиональный (полное дублирование) [Чистый звук]
Режиссер: Антуан Фукуа-В ролях:
Дензел Вашингтон, Мартон Чокаш, Хлоя Грейс Морец, Дэвид Харбор, Хейли Беннетт, Билл Пуллман, Мелисса Лео, Дэвид Мюнье, Джонни Скуртис, Алекс Видов-Описание:
Роберт МакКолл — бывший спецназовец. После увольнения со службы он собирается начать нормальную мирную жизнь, дав себе обещание, больше никогда не брать в руки оружия. Но в один прекрасный момент он встречает молодую девушку, зарабатывающую на жизнь проституцией, которую на его глазах избивают бандиты и увозят в неизвестном направлении. Тогда он решает отыскать ее, после чего вступает в неравную схватку с русской мафией и продажными агентами ЦРУ. Ради справедливости он готов нарушить собственное обещание и применить оружие против людей, которые просто не заслуживают жить в этом мире…-Качество: BDRip 720p
Формат: MKV
Видео кодек: H.264
Аудио кодек: AC3/DTS
Видео: AVC, 1280x536 (2,40:1), 23.976 fps, 5131 Kbps (0.312 bit/pixel)
Аудио #1 RUS: AC3, 48.0 KHz, 2 ch, 192 Kbps, CBR
Аудио #2 ENG : DTS, 48.0 KHz, 6 ch, 1 510 Kbps, CBR
Субтитры: Английские
-

MediaInfo

Format : Matroska
Format version : Version 2
File size : 6.43 GiB
Duration : 2h 12mn
Overall bit rate : 6 971 Kbps
Movie name : HDA & KR
Encoded date : UTC 2014-12-13 19:46:50
Writing application : mkvmerge v3.3.0 ('Language') built on Mar 24 2010 14:59:24
Writing library : libebml v0.8.0 + libmatroska v0.9.0
DURATION : 02:10:22.610000000
NUMBER_OF_FRAMES : 1548
NUMBER_OF_BYTES : 51207
_STATISTICS_WRITING_APP : mkvmerge v7.3.0 ('Nouages') 64bit built on Oct 22 2014 18:53:34
_STATISTICS_WRITING_DATE_UTC : 2014-12-12 11:02:31
_STATISTICS_TAGS : BPS DURATION NUMBER_OF_FRAMES NUMBER_OF_BYTES
Video #1
ID : 1
Format : AVC
Format/Info : Advanced Video Codec
Format profile : [email protected]
Format settings, CABAC : Yes
Format settings, ReFrames : 12 frames
Codec ID : V_MPEG4/ISO/AVC
Duration : 2h 12mn
Bit rate : 5 131 Kbps
Width : 1 280 pixels
Height : 536 pixels
Display aspect ratio : 2.40:1
Frame rate mode : Constant
Frame rate : 23.976 fps
Color space : YUV
Chroma subsampling : 4:2:0
Bit depth : 8 bits
Scan type : Progressive
Bits/(Pixel*Frame) : 0.312
Stream size : 4.73 GiB (74%)
Title : HDA & KR
Writing library : x264 core 142 r2431kMod ac76440
Encoding settings : cabac=1 / ref=12 / deblock=1:-3:-3 / analyse=0x3:0x133 / me=umh / subme=11 / psy=1 / fade_compensate=0.00 / psy_rd=1.05:0.00 / mixed_ref=1 / me_range=24 / chroma_me=1 / trellis=2 / 8x8dct=1 / cqm=0 / deadzone=21,11 / fast_pskip=0 / chroma_qp_offset=-2 / threads=24 / lookahead_threads=4 / sliced_threads=0 / nr=0 / decimate=0 /interlaced=0 / bluray_compat=0 / constrained_intra=0 / fgo=0 / bframes=9 / b_pyramid=2 / b_adapt=2 / b_bias=0 / direct=3 / weightb=1 / open_gop=0 / weightp=2 / keyint=250 /keyint_min=23 / scenecut=40 / intra_refresh=0 / rc=crf / mbtree=0 / crf=15.5000 / qcomp=0.70 / qpmin=0 / qpmax=69 / qpstep=4 / ip_ratio=1.30 / pb_ratio=1.20 / aq=3:0.85
Language : English
Default : No
Forced : No
DURATION : 02:12:02.915000000
NUMBER_OF_FRAMES : 189960
NUMBER_OF_BYTES : 5216377591
_STATISTICS_WRITING_APP : mkvmerge v7.3.0 ('Nouages') 64bit built on Oct 22 2014 18:53:34
_STATISTICS_WRITING_DATE_UTC : 2014-12-12 11:02:31
_STATISTICS_TAGS : BPS DURATION NUMBER_OF_FRAMES NUMBER_OF_BYTES
Audio #2
ID : 2
Format : AC-3
Format/Info : Audio Coding 3
Mode extension : CM (complete main)
Format settings, Endianness : Big
Codec ID : A_AC3
Duration : 2h 12mn
Bit rate mode : Constant
Bit rate : 192 Kbps
Channel(s) : 2 channels
Channel positions : Front: L R
Sampling rate : 48.0 KHz
Bit depth : 16 bits
Compression mode : Lossy
Stream size : 181 MiB (3%)
Title : AC3 2.0 @ 192 kbps - Dub, Line
Language : Russian
Default : Yes
Forced : No
Audio #3
ID : 3
Format : DTS
Format/Info : Digital Theater Systems
Mode : 16
Format settings, Endianness : Big
Codec ID : A_DTS
Duration : 2h 12mn
Bit rate mode : Constant
Bit rate : 1 509 Kbps
Channel(s) : 6 channels
Channel positions : Front: L C R, Side: L R, LFE
Sampling rate : 48.0 KHz
Bit depth : 24 bits
Compression mode : Lossy
Delay relative to video : 11ms
Stream size : 1.39 GiB (22%)
Title : DTS 5.1 @ 1509 kbps
Language : English
Default : No
Forced : No
Text #4
ID : 4
Format : UTF-8
Codec ID : S_TEXT/UTF8
Codec ID/Info : UTF-8 Plain Text
Title : Forced
Language : English
Default : No
Forced : Yes
Text #5
ID : 5
Format : UTF-8
Codec ID : S_TEXT/UTF8
Codec ID/Info : UTF-8 Plain Text
Language : English
Default : No
Forced : No
Text #6
ID : 6
Format : UTF-8
Codec ID : S_TEXT/UTF8
Codec ID/Info : UTF-8 Plain Text
Title : SDH
Language : English
Default : No
Forced : No
-

Скриншоты:

-
Яндекс.Метрика
Рейтинг@Mail.ru