Последний из Магикян (2013,Комедия, cемейный, сериал)(Резо Гигинеишвили) SATRip (Сезоны 1-3, серии 1-40 из 40)

 

Создавать темы 13-Дек-2014 18:47

-Последний из Магикян (2013) SATRip (Сезон 1-3, серии 1-40 из 40)- Год выпуска: 2013
Жанр: Комедия, cемейный, сериал
Выпущено: Россия, СТС
Режиссер: Резо Гигинеишвили
Актеры: Грант Тохатян, Анна Ардова, Андрей Бурковский, Алина Гринберг, Луиза-Габриэла Бровина, Элен Касьяник
Описание фильма:
В новом сериале «Последний из Магикян» главный герой Карен — человек, который не прогибается под меняющийся мир. У него монохромный мобильник, нет электронной почты, и он никогда не разговаривал по скайпу. Карен всю жизнь мечтает о сыне, но воспитывает 3-х дочерей. Младшая дочь гоняет в аркады на айпаде, средняя зависает в сети, а старшая и вовсе собирается замуж. Карен Магикян — истинный армянин, и традиции для него — превыше всего. Поэтому мириться с прогрессивными взглядами своих дочерей он не собирается!

Продолжительность: ~ 00:23:00 серия
Качество видео: SATRip
Видеокодек: XviD
Битрейт видео: ~1500 kb/s
Размер кадра: 720х400 (16:9)
Аудио: MP3, 48,0 kHz, 2 ch, 128 kbps

MediaInfo

Общее
Полное имя : D:\1UP\Posledniy.iz.Magikyan.1.2013.SATRip\Posledniy.iz.Magikyan.02.2013.SATRip.avi
Формат : AVI
Формат/Информация : Audio Video Interleave
Размер файла : 279 Мбайт
Продолжительность : 23 м.
Общий поток : 1632 Кбит/сек
Программа кодирования : TMPGEnc Video Mastering Works 5 Version. 5.0.5.32
Библиотека кодирования : VirtualDub build 29808/release
Видео
Идентификатор : 0
Формат : MPEG-4 Visual
Профиль формата : Advanced [email protected]
Параметр BVOP формата : 2
Параметр QPel формата : Нет
Параметр GMC формата : Без точки перехода
Параметр матрицы формата : Default (H.263)
Режим смешивания : Сжатый битовый поток
Идентификатор кодека : XVID
Идентификатор кодека/Подсказка : XviD
Продолжительность : 23 м.
Битрейт : 1495 Кбит/сек
Ширина : 720 пикселей
Высота : 400 пикселей
Соотношение сторон : 16:9
Частота кадров : 25,000 кадров/сек
Цветовое пространство : YUV
Субдискретизация насыщенности : 4:2:0
Битовая глубина : 8 бит
Тип развёртки : Прогрессивная
Метод сжатия : С потерями
Бит/(Пиксели*Кадры) : 0.208
Размер потока : 256 Мбайт (92%)
Библиотека кодирования : XviD 64
Аудио
Идентификатор : 1
Формат : MPEG Audio
Версия формата : Version 1
Профиль формата : Layer 3
Режим : Joint stereo
Расширение режима : MS Stereo
Идентификатор кодека : 55
Идентификатор кодека/Подсказка : MP3
Продолжительность : 23 м.
Вид битрейта : Постоянный
Битрейт : 128 Кбит/сек
Каналы : 2 канала
Частота : 48,0 КГц
Метод сжатия : С потерями
Размер потока : 21,9 Мбайт (8%)
Выравнивание : Разделение по промежуткам
Продолжительность промежутка : 40 мс. (1,00 видеокадр)
Время предзагрузки промежутка : 500 мс.
Скриншоты:
Добавлена 40-я серия (12 серия 3-го сезона).
Яндекс.Метрика
Рейтинг@Mail.ru