Андрей Цыганков | Формула эффективного заработка на партнерских программах (2014) HDTV

 

Создавать темы 13-Дек-2014 08:12

Андрей Цыганков
Формула эффективного заработка на партнерских программах
- Автор (режиссер): Андрей Цыганков
Жанр: Заработок на партнерках
Продолжительность: 02:03:21
Качество видео: HDTV
Видеокодек: AVC
Битрейт видео: 109 Кбит/сек, 819 Кбит/сек
Размер кадра: 1280x720
Аудиокодек: AVC
Битрейт аудио: 53,6 Кбит/сек (CBR), 2 Ch, 44,1 КГц
Описание:
В данном видеокурсе автор пошагово рассказывает о том, как получить эффективные результаты в заработке на партнерках с минимальными затратами денег и времени. Автор рассказывает и показывает в режиме реального времени как и что делать.
Видеокурс состоит из небольших видеоуроков. Всего 24 урока.

Изучая видеокурс вы узнаете:

Как правильно выбрать партнерку (не банальный способ);
Как определить платежеспособную целевую аудиторию;
Как определить денежные целевые направления и сколько их должно быть;
Как подготовить партнерскую ссылку, чтобы отслеживать ее эффективность;
Что такое сайт-прокладка и зачем она нужна (БОНУС: готовый шаблон сайта-прокладки );
Как быстро найти 1000 и более ключевых слов для рекламной кампании;
Как дробить ключевые слова и зачем это нужно;
Что такое «рыба» объявления и как с ней работать;
Быстрая загрузка и выгрузка объявлений из Директа;
Секретные фишки Эксель, которые позволяют быстро создавать тысячи эффективных объявлений;
Как пройти модерацию в Директ, если не получается;
Как улучшить существующую кампанию и как ее масштабировать;
Как наконец-то, поставить заработок на партнерках на поток при помощи сайтов-прокладок и множества эффективных рекламных объявлений.

Рекомендации по изучению видеокурса:

Смотрите видеоурок. Внедряете и только затем переходите к следующему уроку

По завершению курса у вас будет:

1. Сайт прокладка
2. Одна настроенная рекламная компания в Яндекс директ
3. Первый доход

MediaInfo:

Общее
Полное имя: D:\Downloads\Видеоуроки\vebinar_bonus\ВЕБИНАР + БОНУСЫ\Формула эффективного заработка на партнерских программах\AutoPlay\Videos\1.mp4
Формат: MPEG-4
Профиль формата: Base Media / Version 2
Идентификатор кодека: mp42
Размер файла: 1,53 Мбайт
Продолжительность: 1 м. 11 с.
Режим общего битрейта: Переменный
Общий поток : 178 Кбит/сек
Дата кодирования: UTC 2014-06-09 09:54:18
Дата пометки: UTC 2014-06-09 09:54:18
Видео
Идентификатор: 1
Формат: AVC
Формат/Информация: Advanced Video Codec
Профиль формата: [url=mailto:[email protected]][email protected][/url]
Параметр CABAC формата: Да
Параметр ReFrames формата: 4 кадра
Параметр GOP формата: M=1, N=75
Идентификатор кодека: avc1
Идентификатор кодека/Информация: Advanced Video Coding
Продолжительность: 1 м. 11 с.
Продолжительность оригинала: 1 м. 11 с.
Вид битрейта: Переменный
Битрейт: 109 Кбит/сек
Максимальный битрейт: 819 Кбит/сек
Ширина: 1280 пикселей
Высота: 720 пикселей
Соотношение сторон: 16:9
Режим частоты кадров: Постоянный
Частота кадров: 15,000 кадров/сек
Цветовое пространство: YUV
Субдискретизация насыщенности: 4:2:0
Битовая глубина: 8 бит
Тип развёртки: Прогрессивная
Бит/(Пиксели*Кадры): 0.008
Размер потока: 955 Кбайт (61%)
Размер потока оригинала: 1,05 Мбайт (69%)
Язык: English
Дата кодирования: UTC 2014-06-09 09:54:18
Дата пометки: UTC 2014-06-09 09:54:18
Основные цвета: BT.709
Характеристики трансфера : BT.709
Коэффициенты матрицы : BT.709
colour_range: Limited
mdhd_Duration: 71732
Аудио
Идентификатор: 2
Формат: AAC
Формат/Информация: Advanced Audio Codec
Профиль формата: LC
Идентификатор кодека : 40
Продолжительность: 1 м. 11 с.
Продолжительность оригинала: 1 м. 11 с.
Вид битрейта: Постоянный
Битрейт: 53,6 Кбит/сек
Каналы: 2 канала
Расположение каналов: Front: L R
Частота: 44,1 КГц
Метод сжатия: С потерями
Размер потока : 469 Кбайт (30%)
Размер потока оригинала : 469 Кбайт (30%)
Язык: English
Дата кодирования : UTC 2014-06-09 09:54:18
Дата пометки : UTC 2014-06-09 09:54:18
mdhd_Duration: 71772

Скриншоты:


Яндекс.Метрика
Рейтинг@Mail.ru