София Ротару - София Ротару (2014) [FLAC|Lossless]<Pop>

 

Создавать темы 12-Дек-2014 20:08

-София Ротару - София Ротару (2014)- Год: 2014
Жанр: Pop
Продолжительность: 00:56:16
Источник (релизёр): jezerje
Кодек: FLAC
Тип рипа: image+.cue
Битрейт: Lossless
Треклист:
01. Ты самый лучший
02. Время любить
03. Мы будем вместе
04. Я-твоя любовь
05. Глаза в глаза
06. Научи смеяться
07. Я же его любила
08. Я не оглянусь
09. Белая зима
10. Не уходи
11. Белый танец
12. Моя любовь
13. Осенние цветы
14. Я назову планету именем твоим
15. Капелька любви

Дополнительная информация&#58;


Диск был приобретён мной (jezerje) 30 октября после концерта Софии Михайловны во Владивостоке.
"Я назову планету", "Ты самый лучший", "Белая зима", "Я-твоя любовь" - песни с бисовками.

Об исполнителе&#58;

Народная артистка трёх государств: России, Украины и Молдовы - София Ротару уже более сорока лет радует слушателей своим прекрасным голосом и неповторимой манерой исполнения. Практически все песни певицы становятся хитами. Певица совершенно разные композиции сумела раскрасить своим сильным, чистым, гармоничным голосом разными цветами и оттенками, придав одним лиричность, другим оптимизм, третьим одухотворенность. Особенно радует, что сейчас София Ротару переживает огромный творческий подъём, даря всем слушателям гармонию и красоту своих новых песен, демонстрируя прекрасную внешнюю форму, великолепный голос, артистизм и высочайший профессионализм.
... И тем не менее, главная её привлекательность для слушателей заключается в том, что певица остаётся верна именно народной манере исполнения. Народность проявляется и в постановке голоса, и в простоте, сдержанности поведения на сцене, и, наконец, в выборе репертуара: песни Ротару всегда лиричны, распевны. И ещё, в народной песне не встретишь случайных, ничего не значащих, пустых слов, и это, несомненно, научило Софию среди многих новых современных песен выбирать лишь те, что исполнены глубокого смысла, вызывают размышления. Ведь, по её мнению, за те три-четыре минуты, какие длится песня, артист должен очень многое поведать слушателю, сделать его богаче.
Когда София Ротару выходит на сцену и начинает петь, забываешь обо всём на свете. Её прозрачный, чарующий голос проникает в душу, волнует и покоряет каждого, кто любит эстраду, любит песню. Вот стоит она перед микрофоном в свете прожектора - стройная, праздничная, словно весенняя веточка. Сколько в ней обаяния, красоты, сколько искренности и волнения, когда на прекрасном языке музыки и поэзии она доверительно делится с нами всем, что её радует и печалит...

Cue - файл&#58;

REM GENRE Pop
REM DATE 2014
REM DISCID C90D300F
REM COMMENT "ExactAudioCopy v1.0b3"
PERFORMER "София Ротару"
TITLE "2014"
FILE "rotaru2014.flac" WAVE
  TRACK 01 AUDIO
    TITLE "Ты самый лучший"
    PERFORMER "София Ротару"
    INDEX 01 00:00:00
  TRACK 02 AUDIO
    TITLE "Время любить"
    PERFORMER "София Ротару"
    INDEX 01 03:42:27
  TRACK 03 AUDIO
    TITLE "Мы будем вместе"
    PERFORMER "София Ротару"
    INDEX 01 07:23:27
  TRACK 04 AUDIO
    TITLE "Я-твоя любовь"
    PERFORMER "София Ротару"
    INDEX 01 10:41:01
  TRACK 05 AUDIO
    TITLE "Глаза в глаза"
    PERFORMER "София Ротару"
    INDEX 01 14:35:33
  TRACK 06 AUDIO
    TITLE "Научи смеяться"
    PERFORMER "София Ротару"
    INDEX 01 18:08:41
  TRACK 07 AUDIO
    TITLE "Я же его любила"
    PERFORMER "София Ротару"
    INDEX 01 21:39:37
  TRACK 08 AUDIO
    TITLE "Я не оглянусь"
    PERFORMER "София Ротару"
    INDEX 01 26:03:34
  TRACK 09 AUDIO
    TITLE "Белая зима"
    PERFORMER "София Ротару"
    INDEX 01 29:38:16
  TRACK 10 AUDIO
    TITLE "Не уходи"
    PERFORMER "София Ротару"
    INDEX 01 33:06:53
  TRACK 11 AUDIO
    TITLE "Белый танец"
    PERFORMER "София Ротару"
    INDEX 01 36:15:07
  TRACK 12 AUDIO
    TITLE "Моя любовь"
    PERFORMER "София Ротару"
    INDEX 01 40:14:13
  TRACK 13 AUDIO
    TITLE "Осенние цветы"
    PERFORMER "София Ротару"
    INDEX 01 43:44:07
  TRACK 14 AUDIO
    TITLE "Я назову планету именем твоим"
    PERFORMER "София Ротару"
    INDEX 01 47:19:50
  TRACK 15 AUDIO
    TITLE "Капелька любви"
    PERFORMER "София Ротару"
    INDEX 01 52:00:50

Отчёт ЕАС&#58;

Exact Audio Copy V1.0 beta 3 from 29. August 2011
Отчёт EAC об извлечении, выполненном 31. октября 2014, 21:53
София Ротару / 2014
Дисковод: ASUS    DRW-24F1ST   a   Adapter: 1  ID: 1
Режим чтения                 : Достоверность
Использование точного потока : Да
Отключение кэша аудио        : Да
Использование указателей C2  : Нет
Коррекция смещения при чтении                     : 6
Способность читать области Lead-in и Lead-out     : Нет
Заполнение пропущенных сэмплов тишиной            : Да
Удаление блоков с тишиной в начале и конце        : Нет
При вычислениях CRC использовались нулевые сэмплы : Да
Интерфейс                                         : Встроенный Win32-интерфейс для Win NT/2000
Выходной формат : Внутренние WAV-операции
Формат сэмплов  : 44.100 Гц; 16 бит; стерео
TOC извлечённого CD
     Трек |   Старт  | Длительность | Начальный сектор | Конечный сектор
    ---------------------------------------------------------------------
       1  |  0:00.00 |    3:42.27   |           0      |      16676
       2  |  3:42.27 |    3:41.00   |       16677      |      33251
       3  |  7:23.27 |    3:17.49   |       33252      |      48075
       4  | 10:41.01 |    3:54.32   |       48076      |      65657
       5  | 14:35.33 |    3:33.08   |       65658      |      81640
       6  | 18:08.41 |    3:30.71   |       81641      |      97461
       7  | 21:39.37 |    4:23.72   |       97462      |     117258
       8  | 26:03.34 |    3:34.57   |      117259      |     133365
       9  | 29:38.16 |    3:28.37   |      133366      |     149002
      10  | 33:06.53 |    3:08.29   |      149003      |     163131
      11  | 36:15.07 |    3:59.06   |      163132      |     181062
      12  | 40:14.13 |    3:29.69   |      181063      |     196806
      13  | 43:44.07 |    3:35.43   |      196807      |     212974
      14  | 47:19.50 |    4:41.00   |      212975      |     234049
      15  | 52:00.50 |    4:16.08   |      234050      |     253257
Характеристики диапазона извлечения и сообщения об ошибках
Выбранный диапазон
     Имя файла E:\rotaru2014\rotaru2014.wav
     Пиковый уровень 100.0 %
     Скорость извлечения 2.9 X
     Качество диапазона 99.9 %
     CRC теста DAFE96C8
     CRC копии DAFE96C8
     Копирование... OK
Ошибок не произошло
AccurateRip: сводка
Трек  1  отсутствует в базе данных
Трек  2  отсутствует в базе данных
Трек  3  отсутствует в базе данных
Трек  4  отсутствует в базе данных
Трек  5  отсутствует в базе данных
Трек  6  отсутствует в базе данных
Трек  7  отсутствует в базе данных
Трек  8  отсутствует в базе данных
Трек  9  отсутствует в базе данных
Трек 10  отсутствует в базе данных
Трек 11  отсутствует в базе данных
Трек 12  отсутствует в базе данных
Трек 13  отсутствует в базе данных
Трек 14  отсутствует в базе данных
Трек 15  отсутствует в базе данных
Ни одного трека нет в базе AccurateRip
Конец отчёта
==== Контрольная сумма отчёта DE3FD0FC7037532B9744B5884D3DACAD7F0AEA16A723E5291B3BC1EE8B2E613E ====

Отчёт auCDtect Task manager&#58;

-----------------------
DON'T MODIFY THIS FILE
-----------------------
PERFORMER: auCDtect Task Manager, ver. 1.0.0 Stable build 1.0.0.0
Copyright (c) 2008, 2009 y-soft. All rights reserved
http://y-soft.110mb.com
ANALYZER: auCDtect: CD records authenticity detector, version 0.8.2
Copyright (c) 2004 Oleg Berngardt. All rights reserved.
Copyright (c) 2004 Alexander Djourik. All rights reserved.
FILE: rotaru2014.flac
  Size: 460306599 Hash: 88527AC5CCC9973087DB8412DBAF2991 Accuracy: -m0
  Conclusion: CDDA 100%
  Signature: 2972F516DDE7A61E811E8BA958F012704CB10B00
-
Яндекс.Метрика
Рейтинг@Mail.ru