Miko Mission - The Greatest Remixes Hits (1999) [FLAC (image+.cue)|Lossless]<Italo-Disco, Euro House>

 

Создавать темы 12-Дек-2014 19:37

-Miko Mission - The Greatest Remixes Hits (1999)- Год: 10 Aug 1999
Страна: Germany
Лейбл: ZYX Music ‎- ZYX 10064-2
Формат: CD, Compilation
Жанр: Italo-Disco, Euro House
Продолжительность: 01:07:52
Источник (релизер): Pol Alex
Кодек: FLAC
Тип рипа: image+.cue
Битрейт: Lossless
Треклист:
01. How Old Are You ? (TCP Latino Mix) 5:50
02. How Old Are You ? (TCP Original Remix) 5:50
03. The World Is You (TCP Club Mix) 6:23
04. The World Is You (TCP Instrumental Mix) 6:22
05. Two For Love (TCP 98 Klub Mix) 5:21
06. Two For Love (TCP 98 Instrumental Mix) 5:21
07. Toc Toc Toc (Original Edit Mix) 4:38
08. I Like The Woman's Heart (Edit Mix) 4:37
09. One Step To Heaven (Original Edit Mix) 3:57
10. How Old Are You ? (Original Edit Mix) 5:04
11. Strip Tease (Edit Mix) 4:54
12. The World Is You (Original Edit Mix) 5:33
13. Two For Love (Original Edit Mix) 4:01

Дополнительная информация&#58;

Музыкальный жанр, именуемый Italo-disco, представлен сотнями более или менее известных имён, притом многие из этих артистов ограничились лишь выпуском нескольких синглов. К последним "неальбомным" именам относится и Miko Mission, однако благодаря некоторым факторам артист стал легендой italo-disco наряду с такими именами, как Savage, Valerie Dore, Scotch, P.Lion... О каких факторах идёт речь? Прежде всего, выделим талантливых, маститых авторов песен для Miko Mission, выдающиеся вокальные данные исполнителя и его нетривиальную внешность: на сцене, на обложках синглов, на постерах и в видеороликах артист выглядит весьма импозантно, с экстремальным гримом и в яркой сценической одежде.
Первая известная композиция, исполненная Piermichel Bozetti называлась "Starman", а записал её артист под псевдонимом Loopside в 1983 году. В 1984 году исполнитель под именем Miko Mission выпускает классический хит итало-диско: "How Old Are You quot; (авторы: Carrasco - Pegoraro), а чуть позже появляется ещё одна "классика" - сингл "The World Is You" (те же авторы, но при участии знаменитой S.Zanini и самого P.Bozzetti).
Следует заметить, что обе песни получились исключительно похожими друг на друга, однако обе они были включены в основные сборники жанра и легко оказались на вершине стиля "sleazy-italo" по соседству с хитами от Gazebo, Savage, My Mine и Valerie Dore. На фоне успеха первых хитов от Miko Mission большой популярностью в конце 1984 - начале 1985 гг. стали пользоваться песни, создаваемые в похожем стиле. Яркий пример - R. Bais "Dial My Number" от того же автора G.Pegoraro.
Следующие синглы Miko Mission записывал не особо поторапливаясь: в 1985 году - "Two for love" (Baldoni - Verdi - Zambelli - Pegoraro), ещё одна знаменитая песня, подобно двум предыдущим вошедшая в сборники The Best Of Italo Disco (рекорд-лэйбл ZYX); в 1986 -"Striptease"; в 1987 - "Toc Toc Toc" и "I Like A Woman's Heart". В это время Miko Mission пересекается с очень знаменитым и популярным тогда творческим дуэтом Mauro Farina - Giuliano Crivellente, которому принадлежит авторство песни "Toc Toc Toc" - очередное включение в свежий сборник The Best Of Italo Disco. В свою очередь, Piermichel Bozetti записывает песню "Ring The Bell" под курируемый Фариной "многоголосый" проект Alan Barry. Piermichel Bozetti начинает активно участвовать в создании исполняемых им песен и, кроме того, пишет в соавторстве музыку под иные проекты итало-диско, например, Mr. Black "Monalisa".
Далее следуют синглы: "I believe" (1988), "One step to heaven" (1989), "Rock me round the world" (1989). Альбом так и не был записан, поскольку материала для диска было маловато, да и звучание песен соответствовало периоду их создания (1984-89гг.), что не позволяло сформировать современно и однородно звучащий альбом. Впрочем, желающие иметь всё творчество Miko Mission (равно, как и KB Caps, T.Ark, Roger Meno, Italian Boys, Latin Lover, Martinelli и проч.) на одном диске могут воспользоваться услугами продавцов "пиратской" продукции, представленной сборниками синглов, стилизованными "под альбом".
В 1994 году Miko Mission очень удивил своих былых поклонников выпуском сингла "I Can Fly", звучащем в духе быстрого Eurodance. Вряд ли кто-то всерьёз полагал, что после 1989 года Miko Mission ещё что-либо выпустит. Но не прошло и двух лет, как появляется ещё одна, близкая по звучанию к предшественнице, песня "Mr. Blue". Несмотря на то, что громкий успех обоим синглам не сопутствовал, песни получились яркими, с сильным вокалом и хитовыми диско-мелодиями, что должно было произвести приятное впечатление на любителей диско "старой закалки" и на молодую публику.
В 1998 году, на волне успеха возродившегося дуэта Modern Talking, с которым у многих людей ассоциируется представление о стиле евродиско, выходит много музыкального материала с новыми вещами, ремиксами и сборниками от диско-звёзд 80-х. Переизданиями, в основном, занимается рекорд-лэйбл ZYX, на котором вспомнили и о Miko Mission. В свет выходит сборник "The Greatest Remixed Hits" (ZYX 10064-2), получившийся более интересным, чем, к примеру, "бэсты" от Scotch или Albert One, поскольку в диск Miko Mission, кроме ранних хитов в оригинальном звучании, были включены специально записанные три пары свежих ремиксов на три первые песни исполнителя. Позже сингл "How Old Are You quot; вновь переиздаётся, видимо, для "старой гвардии" диско-меломанов, многие из которых наверняка всё-таки ждут какого-то очередного сюрприза от Miko Mission.

Cue - файл&#58;

REM GENRE Italo-Disco
REM DATE 1999
REM DISCID B80FE70D
REM COMMENT "ExactAudioCopy v0.99pb5"
PERFORMER "Miko Mission"
TITLE "The Greatest Remixes Hits"
FILE "Miko Mission - The Greatest Remixes Hits.flac" WAVE
  TRACK 01 AUDIO
    TITLE "How Old Are You? (TCP Latino Mix)"
    PERFORMER "Miko Mission"
    ISRC DEA319905637
    INDEX 01 00:00:00
  TRACK 02 AUDIO
    TITLE "How Old Are You? (TCP Original Remix)"
    PERFORMER "Miko Mission"
    ISRC DEA319905638
    INDEX 00 05:47:38
    INDEX 01 05:49:38
  TRACK 03 AUDIO
    TITLE "The World Is You (TCP Club Mix)"
    PERFORMER "Miko Mission"
    ISRC DEA319905639
    INDEX 00 11:37:03
    INDEX 01 11:39:03
  TRACK 04 AUDIO
    TITLE "The World Is You (TCP Instrumental Mix)"
    PERFORMER "Miko Mission"
    ISRC DEA319905640
    INDEX 00 18:00:00
    INDEX 01 18:02:00
  TRACK 05 AUDIO
    TITLE "Two For Love (TCP 98 Klub Mix)"
    PERFORMER "Miko Mission"
    ISRC DEA319905641
    INDEX 00 24:22:27
    INDEX 01 24:24:27
  TRACK 06 AUDIO
    TITLE "Two For Love (TCP 98 Instrumental Mix)"
    PERFORMER "Miko Mission"
    ISRC DEA319905642
    INDEX 00 29:43:51
    INDEX 01 29:45:51
  TRACK 07 AUDIO
    TITLE "Toc Toc Toc (Original Edit Mix)"
    PERFORMER "Miko Mission"
    ISRC DEA319905643
    INDEX 00 35:04:74
    INDEX 01 35:06:74
  TRACK 08 AUDIO
    TITLE "I Like The Woman's Heart (Edit Mix)"
    PERFORMER "Miko Mission"
    ISRC DEA319905644
    INDEX 00 39:43:35
    INDEX 01 39:45:35
  TRACK 09 AUDIO
    TITLE "One Step To Heaven (Original Edit Mix)"
    PERFORMER "Miko Mission"
    ISRC DEA319905645
    INDEX 00 44:20:03
    INDEX 01 44:22:03
  TRACK 10 AUDIO
    TITLE "How Old Are You? (Original Edit Mix)"
    PERFORMER "Miko Mission"
    ISRC DEA319905646
    INDEX 00 48:17:21
    INDEX 01 48:19:21
  TRACK 11 AUDIO
    TITLE "Strip Tease (Edit Mix)"
    PERFORMER "Miko Mission"
    ISRC DEA319905647
    INDEX 00 53:21:14
    INDEX 01 53:23:14
  TRACK 12 AUDIO
    TITLE "The World Is You (Original Edit Mix)"
    PERFORMER "Miko Mission"
    ISRC DEA319905648
    INDEX 00 58:15:13
    INDEX 01 58:17:13
  TRACK 13 AUDIO
    TITLE "Two For Love (Original Edit Mix)"
    PERFORMER "Miko Mission"
    ISRC DEA319905649
    INDEX 00 63:48:19
    INDEX 01 63:50:19

Отчёт ЕАС&#58;

Exact Audio Copy V0.99 prebeta 5 from 4. May 2009
Отчёт EAC об извлечении, выполненном 9. апреля 2010, 11:05
Miko Mission / The Greatest Remixes Hits
Дисковод: Optiarc DVD RW AD-5200A   Adapter: 0  ID: 0
Режим чтения                 : Достоверность
Использование точного потока : Да
Отключение кэша аудио        : Да
Использование указателей C2  : Нет
Коррекция смещения при чтении                     : 48
Способность читать области Lead-in и Lead-out     : Нет
Заполнение пропущенных сэмплов тишиной            : Да
Удаление блоков с тишиной в начале и конце        : Нет
При вычислениях CRC использовались нулевые сэмплы : Да
Интерфейс                                         : Встроенный Win32-интерфейс для Win NT/2000
Выходной формат : Внутренние WAV-операции
Формат сэмплов  : 44.100 Гц; 16 бит; стерео
TOC извлечённого CD
     Трек |   Старт  | Длительность | Начальный сектор | Конечный сектор
    ---------------------------------------------------------------------
       1  |  0:00.00 |    5:49.38   |           0      |      26212
       2  |  5:49.38 |    5:49.40   |       26213      |      52427
       3  | 11:39.03 |    6:22.72   |       52428      |      81149
       4  | 18:02.00 |    6:22.27   |       81150      |     109826
       5  | 24:24.27 |    5:21.24   |      109827      |     133925
       6  | 29:45.51 |    5:21.23   |      133926      |     158023
       7  | 35:06.74 |    4:38.36   |      158024      |     178909
       8  | 39:45.35 |    4:36.43   |      178910      |     199652
       9  | 44:22.03 |    3:57.18   |      199653      |     217445
      10  | 48:19.21 |    5:03.68   |      217446      |     240238
      11  | 53:23.14 |    4:53.74   |      240239      |     262287
      12  | 58:17.13 |    5:33.06   |      262288      |     287268
      13  | 63:50.19 |    4:01.00   |      287269      |     305343
Характеристики диапазона извлечения и сообщения об ошибках
Выбранный диапазон
     Имя файла H:\All\Music\Miko Mission - The Greatest Remixes Hits\Miko Mission - The Greatest Remixes Hits.wav
     Пиковый уровень 100.0 %
     Качество диапазона 100.0 %
     CRC теста 30F77FE4
     CRC копии 30F77FE4
     Копирование... OK
Ошибок не произошло
AccurateRip: сводка
Трек  1  точность не определена (достоверность 2)  [80876F32], AccurateRip вернул [8DD00283]
Трек  2  точность не определена (достоверность 2)  [978C73C8], AccurateRip вернул [0786D107]
Трек  3  точность не определена (достоверность 2)  [DF49967E], AccurateRip вернул [A254BDF7]
Трек  4  точность не определена (достоверность 2)  [D5609647], AccurateRip вернул [F9B13F9B]
Трек  5  точность не определена (достоверность 2)  [EC0274B1], AccurateRip вернул [339B8531]
Трек  6  точность не определена (достоверность 2)  [CF793EAA], AccurateRip вернул [FDC8BB32]
Трек  7  точность не определена (достоверность 2)  [8D75D11D], AccurateRip вернул [9FE02F2F]
Трек  8  точность не определена (достоверность 2)  [1B8A73A8], AccurateRip вернул [243BBE5A]
Трек  9  точность не определена (достоверность 2)  [C3528C5B], AccurateRip вернул [DE9B74CA]
Трек 10  точность не определена (достоверность 2)  [D692E8A0], AccurateRip вернул [DB6AABCE]
Трек 11  точность не определена (достоверность 2)  [4A5EC66D], AccurateRip вернул [B6E6627F]
Трек 12  точность не определена (достоверность 2)  [D19D9EB8], AccurateRip вернул [FE419FFC]
Трек 13  точность не определена (достоверность 2)  [C2340532], AccurateRip вернул [491BDD70]
Ни один трек не прошёл проверки на точность
В вашей базе может быть иной вариант штамповки диска
Конец отчёта

Отчёт auCDtect Task manager&#58;

-----------------------
DON'T MODIFY THIS FILE
-----------------------
PERFORMER: auCDtect Task Manager, ver. 1.0.0 Stable build 1.0.0.0
Copyright (c) 2008, 2009 y-soft. All rights reserved
http://y-soft.110mb.com
ANALYZER: auCDtect: CD records authenticity detector, version 0.8.2
Copyright (c) 2004 Oleg Berngardt. All rights reserved.
Copyright (c) 2004 Alexander Djourik. All rights reserved.
FILE: Miko Mission - The Greatest Remixes Hits.flac
  Size: 489016658 Hash: 397D776FF037BF516B3C56ADEB985205 Accuracy: -m0
  Conclusion: CDDA 100%
  Signature: 60328D8A0EEAC8270E447CC2ECC9041AF60DC88C
-
Яндекс.Метрика
Рейтинг@Mail.ru