VA - Enigmatic I & II (2006) [FLAC (tracks+.cue)|Lossless]<New Age, Enigmatic>

 

Создавать темы 12-Дек-2014 19:35

-VA - Enigmatic I & II (2006)- Год: 2006
Жанр: New Age, Enigmatic
Страна-производитель диска: Россия
Формат: 2хCD, Compilation
Издатель (лейбл): Landy Star Music
Продолжительность: 02:39:45
Источник (релизер): DrStandBy
Кодек: FLAC
Тип рипа: tracks+.cue
Битрейт: Lossless
VA - Enigmatic I
Номер по каталогу: LSM 385042
Продолжительность: 01:19:58
Треклист:
01. Terry Oldfield - Resurrection (7:34)
02. Wendy Stark - Animus Anima (4:24)
03. Terry Oldfield - Voices in the Wind (3:12)
04. John Richardson - The Power of Grace (4:42)
05. Howard Green - Whispering Shadows (5:36)
06. Brian Carter - The Circle of Knowledge (5:53)
07. Midori - Devotion (4:25)
08. Juliana - Mermaids (6:01)
09. Medwyn Goodall - Devinity (5:29)
10. Midori - Cloud Trees (4:49)
11. Llewellyn - Through the Mysts (4:44)
12. Pia - Siren Song (6:05)
13. Global Collective - Ipmente (3:57)
14. Medwyn Goodall - Lost City (6:57)
15. Phil Thornton - Kiss of the Sorcerer (6:10)

VA - Enigmatic I. Техданные&#58;

Содержание индексной карты (.CUE&#41;

REM GENRE "New Age"
REM DATE 2006
REM DISCID CD12BD0F
REM COMMENT "ExactAudioCopy v1.0b3"
PERFORMER "Various Artists"
TITLE "Enigmatic"
FILE "01. Terry Oldfield - Resurrection.wav" WAVE
  TRACK 01 AUDIO
    TITLE "Resurrection"
    PERFORMER "Terry Oldfield"
    FLAGS DCP
    INDEX 01 00:00:00
  TRACK 02 AUDIO
    TITLE "Animus Anima"
    PERFORMER "Wendy Stark"
    FLAGS DCP
    INDEX 00 07:33:37
FILE "02. Wendy Stark - Animus Anima.wav" WAVE
    INDEX 01 00:00:00
  TRACK 03 AUDIO
    TITLE "Voices in the Wind"
    PERFORMER "Terry Oldfield"
    FLAGS DCP
    INDEX 00 04:22:54
FILE "03. Terry Oldfield - Voices in the Wind.wav" WAVE
    INDEX 01 00:00:00
  TRACK 04 AUDIO
    TITLE "The Power of Grace"
    PERFORMER "John Richardson"
    FLAGS DCP
    INDEX 00 03:10:64
FILE "04. John Richardson - The Power of Grace.wav" WAVE
    INDEX 01 00:00:00
  TRACK 05 AUDIO
    TITLE "Whispering Shadows"
    PERFORMER "Howard Green"
    FLAGS DCP
    INDEX 00 04:40:47
FILE "05. Howard Green - Whispering Shadows.wav" WAVE
    INDEX 01 00:00:00
  TRACK 06 AUDIO
    TITLE "The Circle of Knowledge"
    PERFORMER "Brian Carter"
    FLAGS DCP
    INDEX 00 05:35:07
FILE "06. Brian Carter - The Circle of Knowledge.wav" WAVE
    INDEX 01 00:00:00
  TRACK 07 AUDIO
    TITLE "Devotion"
    PERFORMER "Midori"
    FLAGS DCP
    INDEX 00 05:52:12
FILE "07. Midori - Devotion.wav" WAVE
    INDEX 01 00:00:00
  TRACK 08 AUDIO
    TITLE "Mermaids"
    PERFORMER "Juliana"
    FLAGS DCP
    INDEX 00 04:23:51
FILE "08. Juliana - Mermaids.wav" WAVE
    INDEX 01 00:00:00
  TRACK 09 AUDIO
    TITLE "Devinity"
    PERFORMER "Medwyn Goodall"
    FLAGS DCP
    INDEX 00 05:59:45
FILE "09. Medwyn Goodall - Devinity.wav" WAVE
    INDEX 01 00:00:00
  TRACK 10 AUDIO
    TITLE "Cloud Trees"
    PERFORMER "Midori"
    FLAGS DCP
    INDEX 00 05:28:17
FILE "10. Midori - Cloud Trees.wav" WAVE
    INDEX 01 00:00:00
  TRACK 11 AUDIO
    TITLE "Through the Mysts"
    PERFORMER "Llewellyn"
    FLAGS DCP
    INDEX 00 04:48:31
FILE "11. Llewellyn - Through the Mysts.wav" WAVE
    INDEX 01 00:00:00
  TRACK 12 AUDIO
    TITLE "Siren Song"
    PERFORMER "Pia"
    FLAGS DCP
    INDEX 00 04:43:01
FILE "12. Pia - Siren Song.wav" WAVE
    INDEX 01 00:00:00
  TRACK 13 AUDIO
    TITLE "Ipmente"
    PERFORMER "Global Collective"
    FLAGS DCP
    INDEX 00 06:03:50
FILE "13. Global Collective - Ipmente.wav" WAVE
    INDEX 01 00:00:00
  TRACK 14 AUDIO
    TITLE "Lost City"
    PERFORMER "Medwyn Goodall"
    FLAGS DCP
    INDEX 00 03:55:53
FILE "14. Medwyn Goodall - Lost City.wav" WAVE
    INDEX 01 00:00:00
  TRACK 15 AUDIO
    TITLE "Kiss of the Sorcerer"
    PERFORMER "Phil Thornton"
    FLAGS DCP
    INDEX 00 06:56:05
FILE "15. Phil Thornton - Kiss of the Sorcerer.wav" WAVE
    INDEX 01 00:00:00

Отчёт ЕАС&#58;

Exact Audio Copy V1.0 beta 3 from 29. August 2011
EAC extraction logfile from 27. January 2014, 22:11
Various Artists / Enigmatic
Used drive  : SlimtypeeTAU108   3   Adapter: 1  ID: 0
Read mode               : Secure
Utilize accurate stream : Yes
Defeat audio cache      : Yes
Make use of C2 pointers : No
Read offset correction                      : 6
Overread into Lead-In and Lead-Out          : No
Fill up missing offset samples with silence : Yes
Delete leading and trailing silent blocks   : No
Null samples used in CRC calculations       : Yes
Used interface                              : Native Win32 interface for Win NT & 2000
Gap handling                                : Appended to previous track
Used output format              : User Defined Encoder
Selected bitrate                : 1024 kBit/s
Quality                         : High
Add ID3 tag                     : No
Command line compressor         : C:\Program Files (x86)\Exact Audio Copy\Flac\flac.exe
Additional command line options : -8 -V -T "ARTIST=%artist%" -T "TITLE=%title%" -T "ALBUM=%albumtitle%" -T "DATE=%year%" -T "TRACKNUMBER=%tracknr%" -T "GENRE=%genre%" -T "COMMENT=ripped by DrStandBy" %source%
TOC of the extracted CD
     Track |   Start  |  Length  | Start sector | End sector
    ---------------------------------------------------------
        1  |  0:00.00 |  7:34.37 |         0    |    34086
        2  |  7:34.37 |  4:23.54 |     34087    |    53865
        3  | 11:58.16 |  3:11.64 |     53866    |    68254
        4  | 15:10.05 |  4:41.47 |     68255    |    89376
        5  | 19:51.52 |  5:36.07 |     89377    |   114583
        6  | 25:27.59 |  5:53.12 |    114584    |   141070
        7  | 31:20.71 |  4:24.51 |    141071    |   160921
        8  | 35:45.47 |  6:00.45 |    160922    |   187966
        9  | 41:46.17 |  5:29.17 |    187967    |   212658
       10  | 47:15.34 |  4:49.31 |    212659    |   234364
       11  | 52:04.65 |  4:44.01 |    234365    |   255665
       12  | 56:48.66 |  6:04.50 |    255666    |   283015
       13  | 62:53.41 |  3:56.53 |    283016    |   300768
       14  | 66:50.19 |  6:57.05 |    300769    |   332048
       15  | 73:47.24 |  6:09.65 |    332049    |   359788
Track  1
     Filename Z:\Lossless\Enigmatic\Various\2006 - VA - Enigmatic (LSM 385042)\01. Terry Oldfield - Resurrection.wav
     Pre-gap length  0:00:02.00
     Copy aborted
Track  2
     Pre-gap length  0:00:01.00
     Copy aborted
Track  3
     Pre-gap length  0:00:01.00
     Copy aborted
Track  4
     Pre-gap length  0:00:01.00
     Copy aborted
Track  5
     Pre-gap length  0:00:01.00
     Copy aborted
Track  6
     Pre-gap length  0:00:01.00
     Copy aborted
Track  7
     Pre-gap length  0:00:01.00
     Copy aborted
Track  8
     Pre-gap length  0:00:01.00
     Copy aborted
Track  9
     Pre-gap length  0:00:01.00
     Copy aborted
Track 10
     Pre-gap length  0:00:01.00
     Copy aborted
Track 11
     Pre-gap length  0:00:01.00
     Copy aborted
Track 12
     Pre-gap length  0:00:01.00
     Copy aborted
Track 13
     Pre-gap length  0:00:01.00
     Copy aborted
Track 14
     Pre-gap length  0:00:01.00
     Copy aborted
Track 15
     Pre-gap length  0:00:01.00
     Copy aborted
No tracks could be verified as accurate
There were errors
End of status report
==== Log checksum 76CAA48956A1DBB19AA3324087F58DA52206DE9710E3B68C6D56949A693E8FF2 ====
------------------------------------------------------------
Exact Audio Copy V1.0 beta 3 from 29. August 2011
EAC extraction logfile from 28. January 2014, 7:12
Various Artists / Enigmatic
Used drive  : SlimtypeeTAU108   3   Adapter: 1  ID: 0
Read mode               : Secure
Utilize accurate stream : Yes
Defeat audio cache      : Yes
Make use of C2 pointers : No
Read offset correction                      : 6
Overread into Lead-In and Lead-Out          : No
Fill up missing offset samples with silence : Yes
Delete leading and trailing silent blocks   : No
Null samples used in CRC calculations       : Yes
Used interface                              : Native Win32 interface for Win NT & 2000
Gap handling                                : Appended to previous track
Used output format              : User Defined Encoder
Selected bitrate                : 1024 kBit/s
Quality                         : High
Add ID3 tag                     : No
Command line compressor         : C:\Program Files (x86)\Exact Audio Copy\Flac\flac.exe
Additional command line options : -8 -V -T "ARTIST=%artist%" -T "TITLE=%title%" -T "ALBUM=%albumtitle%" -T "DATE=%year%" -T "TRACKNUMBER=%tracknr%" -T "GENRE=%genre%" -T "COMMENT=ripped by DrStandBy" %source%
TOC of the extracted CD
     Track |   Start  |  Length  | Start sector | End sector
    ---------------------------------------------------------
        1  |  0:00.00 |  7:34.37 |         0    |    34086
        2  |  7:34.37 |  4:23.54 |     34087    |    53865
        3  | 11:58.16 |  3:11.64 |     53866    |    68254
        4  | 15:10.05 |  4:41.47 |     68255    |    89376
        5  | 19:51.52 |  5:36.07 |     89377    |   114583
        6  | 25:27.59 |  5:53.12 |    114584    |   141070
        7  | 31:20.71 |  4:24.51 |    141071    |   160921
        8  | 35:45.47 |  6:00.45 |    160922    |   187966
        9  | 41:46.17 |  5:29.17 |    187967    |   212658
       10  | 47:15.34 |  4:49.31 |    212659    |   234364
       11  | 52:04.65 |  4:44.01 |    234365    |   255665
       12  | 56:48.66 |  6:04.50 |    255666    |   283015
       13  | 62:53.41 |  3:56.53 |    283016    |   300768
       14  | 66:50.19 |  6:57.05 |    300769    |   332048
       15  | 73:47.24 |  6:09.65 |    332049    |   359788
Track  1
     Filename Z:\Lossless\Enigmatic\Various\2006 - VA - Enigmatic (LSM 385042)\01. Terry Oldfield - Resurrection.wav
     Pre-gap length  0:00:02.00
     Peak level 92.1 %
     Extraction speed 1.9 X
     Track quality 99.9 %
     Test CRC 432D8C8E
     Copy CRC 432D8C8E
     Cannot be verified as accurate (confidence 1)  [6B87AAE2], AccurateRip returned [225C3BEF]  (AR v2)
     Copy OK
Track  2
     Filename Z:\Lossless\Enigmatic\Various\2006 - VA - Enigmatic (LSM 385042)\02. Wendy Stark - Animus Anima.wav
     Pre-gap length  0:00:01.00
     Peak level 70.7 %
     Extraction speed 2.4 X
     Track quality 100.0 %
     Test CRC 08763E9C
     Copy CRC 08763E9C
     Cannot be verified as accurate (confidence 1)  [A2C59E91], AccurateRip returned [59CA8C74]  (AR v2)
     Copy OK
Track  3
     Filename Z:\Lossless\Enigmatic\Various\2006 - VA - Enigmatic (LSM 385042)\03. Terry Oldfield - Voices in the Wind.wav
     Pre-gap length  0:00:01.00
     Peak level 88.5 %
     Extraction speed 2.4 X
     Track quality 100.0 %
     Test CRC C6815278
     Copy CRC C6815278
     Cannot be verified as accurate (confidence 1)  [582D56C7], AccurateRip returned [4BDA8E28]  (AR v2)
     Copy OK
Track  4
     Filename Z:\Lossless\Enigmatic\Various\2006 - VA - Enigmatic (LSM 385042)\04. John Richardson - The Power of Grace.wav
     Pre-gap length  0:00:01.00
     Peak level 79.4 %
     Extraction speed 2.7 X
     Track quality 100.0 %
     Test CRC 862A32DE
     Copy CRC 862A32DE
     Cannot be verified as accurate (confidence 1)  [1F08CE95], AccurateRip returned [8D3B34A1]  (AR v2)
     Copy OK
Track  5
     Filename Z:\Lossless\Enigmatic\Various\2006 - VA - Enigmatic (LSM 385042)\05. Howard Green - Whispering Shadows.wav
     Pre-gap length  0:00:01.00
     Peak level 79.4 %
     Extraction speed 2.9 X
     Track quality 100.0 %
     Test CRC 64C39116
     Copy CRC 64C39116
     Cannot be verified as accurate (confidence 1)  [A4901E09], AccurateRip returned [52FDE731]  (AR v2)
     Copy OK
Track  6
     Filename Z:\Lossless\Enigmatic\Various\2006 - VA - Enigmatic (LSM 385042)\06. Brian Carter - The Circle of Knowledge.wav
     Pre-gap length  0:00:01.00
     Peak level 70.7 %
     Extraction speed 3.1 X
     Track quality 100.0 %
     Test CRC 15F7893A
     Copy CRC 15F7893A
     Cannot be verified as accurate (confidence 1)  [239F13A6], AccurateRip returned [748E045C]  (AR v2)
     Copy OK
Track  7
     Filename Z:\Lossless\Enigmatic\Various\2006 - VA - Enigmatic (LSM 385042)\07. Midori - Devotion.wav
     Pre-gap length  0:00:01.00
     Peak level 88.4 %
     Extraction speed 3.2 X
     Track quality 100.0 %
     Test CRC 5EFAF9E4
     Copy CRC 5EFAF9E4
     Cannot be verified as accurate (confidence 1)  [05EC31C7], AccurateRip returned [D3C696D6]  (AR v2)
     Copy OK
Track  8
     Filename Z:\Lossless\Enigmatic\Various\2006 - VA - Enigmatic (LSM 385042)\08. Juliana - Mermaids.wav
     Pre-gap length  0:00:01.00
     Peak level 70.7 %
     Extraction speed 3.4 X
     Track quality 100.0 %
     Test CRC 7A738872
     Copy CRC 7A738872
     Cannot be verified as accurate (confidence 1)  [D5ECDC6A], AccurateRip returned [B2E45DBA]  (AR v2)
     Copy OK
Track  9
     Filename Z:\Lossless\Enigmatic\Various\2006 - VA - Enigmatic (LSM 385042)\09. Medwyn Goodall - Devinity.wav
     Pre-gap length  0:00:01.00
     Peak level 82.7 %
     Extraction speed 3.6 X
     Track quality 100.0 %
     Test CRC 10783B22
     Copy CRC 10783B22
     Cannot be verified as accurate (confidence 1)  [E086A65F], AccurateRip returned [FCCD0968]  (AR v2)
     Copy OK
Track 10
     Filename Z:\Lossless\Enigmatic\Various\2006 - VA - Enigmatic (LSM 385042)\10. Midori - Cloud Trees.wav
     Pre-gap length  0:00:01.00
     Peak level 65.3 %
     Extraction speed 3.7 X
     Track quality 100.0 %
     Test CRC F7574A08
     Copy CRC F7574A08
     Cannot be verified as accurate (confidence 1)  [3D69410B], AccurateRip returned [0139F918]  (AR v2)
     Copy OK
Track 11
     Filename Z:\Lossless\Enigmatic\Various\2006 - VA - Enigmatic (LSM 385042)\11. Llewellyn - Through the Mysts.wav
     Pre-gap length  0:00:01.00
     Peak level 63.0 %
     Extraction speed 3.8 X
     Track quality 100.0 %
     Test CRC D073A958
     Copy CRC D073A958
     Cannot be verified as accurate (confidence 1)  [CC551821], AccurateRip returned [00D78A4E]  (AR v2)
     Copy OK
Track 12
     Filename Z:\Lossless\Enigmatic\Various\2006 - VA - Enigmatic (LSM 385042)\12. Pia - Siren Song.wav
     Pre-gap length  0:00:01.00
     Peak level 82.6 %
     Extraction speed 4.0 X
     Track quality 100.0 %
     Test CRC 8DA21949
     Copy CRC 8DA21949
     Cannot be verified as accurate (confidence 1)  [38761E10], AccurateRip returned [5CD8D26C]  (AR v2)
     Copy OK
Track 13
     Filename Z:\Lossless\Enigmatic\Various\2006 - VA - Enigmatic (LSM 385042)\13. Global Collective - Ipmente.wav
     Pre-gap length  0:00:01.00
     Peak level 56.2 %
     Extraction speed 3.0 X
     Track quality 99.9 %
     Test CRC A8BDDC45
     Copy CRC A8BDDC45
     Cannot be verified as accurate (confidence 1)  [20953C5E], AccurateRip returned [A95B358C]  (AR v2)
     Copy OK
Track 14
     Filename Z:\Lossless\Enigmatic\Various\2006 - VA - Enigmatic (LSM 385042)\14. Medwyn Goodall - Lost City.wav
     Pre-gap length  0:00:01.00
     Peak level 79.4 %
     Extraction speed 4.3 X
     Track quality 100.0 %
     Test CRC A7427A93
     Copy CRC A7427A93
     Cannot be verified as accurate (confidence 1)  [EC12B643], AccurateRip returned [CF448879]  (AR v2)
     Copy OK
Track 15
     Filename Z:\Lossless\Enigmatic\Various\2006 - VA - Enigmatic (LSM 385042)\15. Phil Thornton - Kiss of the Sorcerer.wav
     Pre-gap length  0:00:01.00
     Peak level 92.1 %
     Extraction speed 3.7 X
     Track quality 99.9 %
     Test CRC 1EC1C407
     Copy CRC 1EC1C407
     Cannot be verified as accurate (confidence 1)  [B0F1CDDC], AccurateRip returned [B8BC007A]  (AR v2)
     Copy OK
No tracks could be verified as accurate
You may have a different pressing from the one(s) in the database
No errors occurred
End of status report
---- CUETools DB Plugin V2.1.4
[CTDB TOCID: bR9Bw7HIAS.EuxGW2ebzt6eQLM4-] found
Submit result: bR9Bw7HIAS.EuxGW2ebzt6eQLM4- has been confirmed
Track | CTDB Status
  1   | (1/1) Accurately ripped
  2   | (1/1) Accurately ripped
  3   | (1/1) Accurately ripped
  4   | (1/1) Accurately ripped
  5   | (1/1) Accurately ripped
  6   | (1/1) Accurately ripped
  7   | (1/1) Accurately ripped
  8   | (1/1) Accurately ripped
  9   | (1/1) Accurately ripped
10   | (1/1) Accurately ripped
11   | (1/1) Accurately ripped
12   | (1/1) Accurately ripped
13   | (1/1) Accurately ripped
14   | (1/1) Accurately ripped
15   | (1/1) Accurately ripped
==== Log checksum 5D10C7E585AD7715ED4C5D4A4F24083124473CEE6DB5D131A2885D5BB1ED9FF3 ====

Отчёт auCDtect Task manager&#58;

-----------------------
DON'T MODIFY THIS FILE
-----------------------
PERFORMER: auCDtect Task Manager, ver. 1.6.0 RC1 build 1.6.0.1
Copyright (c) 2008-2010 y-soft. All rights reserved
http://y-soft.org
ANALYZER: auCDtect: CD records authenticity detector, version 0.8.2
Copyright (c) 2004 Oleg Berngardt. All rights reserved.
Copyright (c) 2004 Alexander Djourik. All rights reserved.
FILE: 15. Phil Thornton - Kiss of the Sorcerer.flac
  Size: 35297210 Hash: DA91FD73A5A94ED04A3CE9A312726EE8 Accuracy: -m0
  Conclusion: CDDA 100%
  Signature: 0BF3F3B2EB2E91C71A40619C8BBE1389D62A94DE
FILE: 14. Medwyn Goodall - Lost City.flac
  Size: 49738510 Hash: 7AA6DFAD73998FC0F62646BEF3485EC5 Accuracy: -m0
  Conclusion: CDDA 99%
  Signature: 279E01DB04B2A53A1A6A05014AB2DADF29E4D91A
FILE: 13. Global Collective - Ipmente.flac
  Size: 24017338 Hash: A7934CE829823B281947CA55CFDE7E65 Accuracy: -m0
  Conclusion: CDDA 99%
  Signature: CC4EA150871B908F0BC36A9AFA5D18522F9605AB
FILE: 12. Pia - Siren Song.flac
  Size: 37197551 Hash: 4F1B4196C750E441B3F581A582BBECCF Accuracy: -m0
  Conclusion: CDDA 100%
  Signature: E243E385220D76F03DF73788FDB01BEFA62C1809
FILE: 11. Llewellyn - Through the Mysts.flac
  Size: 31228595 Hash: CD9526440D1808D8BD60622D195052AC Accuracy: -m0
  Conclusion: CDDA 100%
  Signature: 1A4BC9291591989FBBB34DB6F4FFD91B16BACBF7
FILE: 10. Midori - Cloud Trees.flac
  Size: 30165271 Hash: DD3589A999E94625AF0153CCE9373814 Accuracy: -m0
  Conclusion: CDDA 100%
  Signature: EAE7B20400B9A56443843E453A667157450CF6AB
FILE: 09. Medwyn Goodall - Devinity.flac
  Size: 38205021 Hash: 7DD34DD73475A38C50BAC3435EF51958 Accuracy: -m0
  Conclusion: CDDA 100%
  Signature: 362CDB84738D52A152175443B4A6DB23146D060C
FILE: 08. Juliana - Mermaids.flac
  Size: 36690428 Hash: 57126B566018B0AE6782CF16BC1D87C4 Accuracy: -m0
  Conclusion: CDDA 100%
  Signature: F19486AC203CAB9492EC334A14E7B2B604939033
FILE: 07. Midori - Devotion.flac
  Size: 24731824 Hash: 3F2750C2746DABD0E5C070A807BAE643 Accuracy: -m0
  Conclusion: CDDA 100%
  Signature: 6DDAB3947DAA61604635A1BF428ABB0C39934008
FILE: 06. Brian Carter - The Circle of Knowledge.flac
  Size: 29257659 Hash: 59B51E727761B4174E6CF27CA453B76A Accuracy: -m0
  Conclusion: CDDA 100%
  Signature: 3BAFE9FD3A2EA5234CDA5EBBCDEF1E708DA4584B
FILE: 05. Howard Green - Whispering Shadows.flac
  Size: 35420276 Hash: 6A137B65A116D47DE0C8C7A56638D1F4 Accuracy: -m0
  Conclusion: CDDA 100%
  Signature: 247ACB4CE180998C8143EDA11EACC80C9B1C47E7
FILE: 04. John Richardson - The Power of Grace.flac
  Size: 22003912 Hash: 6B9968FD4CE42536FE7FB82F2990259A Accuracy: -m0
  Conclusion: CDDA 100%
  Signature: 9869E4715C1971FDF1DCC824F2A6069D37A520D1
FILE: 03. Terry Oldfield - Voices in the Wind.flac
  Size: 18314099 Hash: 9ACFAECB16DBF0CE188641F82CC91D0F Accuracy: -m0
  Conclusion: CDDA 100%
  Signature: 7F6926F9CEF61E33754F572D8A84FEBA44A85A7D
FILE: 02. Wendy Stark - Animus Anima.flac
  Size: 23740947 Hash: 36F398BAF3E1BC18C9C7045A7BF97BE5 Accuracy: -m0
  Conclusion: CDDA 100%
  Signature: AF028F054ACAE8981D5103BF7C5AC9D31E1A748A
FILE: 01. Terry Oldfield - Resurrection.flac
  Size: 37015244 Hash: 82A5D24FBE2F6EB88B81486FD8CCADE3 Accuracy: -m0
  Conclusion: CDDA 100%
  Signature: 1EEA406BBCDDC4BA75D27FE46EB454A37D8733DD
-

VA - Enigmatic II

Номер по каталогу: LSM 385431
Продолжительность: 01:19:48
Треклист:
01. Terry Oldfield - Majesty (5:35)
02. Midori - Gregorian Soul (5:12)
03. Phil Thornton - The Mask of Seduction (Short Version) (5:00)
04. John Richardson - Spiritual Rhythms (Short Version) (5:00)
05. Llewellyn - Merlyn and the Crossing (4:51)
06. Wendy Stark - Prelude (4:19)
07. Kargo - Sunset at the Kaspah (5:40)
08. Jonathan Still - See the Light (4:44)
09. Tim Wheater - Meeting the Bright Ones (5:52)
10. Wychazel - The Lost Path (5:16)
11. Pia - Radhe (Short Version) (5:35)
12. Medwyn Goodall - Raven (5:16)
13. Terry Oldfield - The Tibetans (Short Version) (4:34)
14. Terry Oldfield - The Greeks (Short Version) (4:21)
15. Kargo - Luna Flamenco (4:06)
16. Llewellyn - The Laughing (4:27)

VA - Enigmatic II. Техданные&#58;

Содержание индексной карты (.CUE&#41;

REM GENRE "New Age"
REM DATE 2006
REM DISCID ED12B310
REM COMMENT "ExactAudioCopy v1.0b3"
PERFORMER "Various Artists"
TITLE "Enigmatic II"
FILE "01. Terry Oldfield - Majesty.wav" WAVE
  TRACK 01 AUDIO
    TITLE "Majesty"
    PERFORMER "Terry Oldfield"
    FLAGS DCP
    INDEX 01 00:00:00
  TRACK 02 AUDIO
    TITLE "Gregorian Soul"
    PERFORMER "Midori"
    FLAGS DCP
    INDEX 00 05:34:02
FILE "02. Midori - Gregorian Soul.wav" WAVE
    INDEX 01 00:00:00
  TRACK 03 AUDIO
    TITLE "The Mask of Seduction (Short Version)"
    PERFORMER "Phil Thornton"
    FLAGS DCP
    INDEX 00 05:10:58
FILE "03. Phil Thornton - The Mask of Seduction (Short Version).wav" WAVE
    INDEX 01 00:00:00
  TRACK 04 AUDIO
    TITLE "Spiritual Rhythms (Short Version)"
    PERFORMER "John Richardson"
    FLAGS DCP
    INDEX 00 04:59:12
FILE "04. John Richardson - Spiritual Rhythms (Short Version).wav" WAVE
    INDEX 01 00:00:00
  TRACK 05 AUDIO
    TITLE "Merlyn and the Crossing"
    PERFORMER "Llewellyn"
    FLAGS DCP
    INDEX 00 04:59:20
FILE "05. Llewellyn - Merlyn and the Crossing.wav" WAVE
    INDEX 01 00:00:00
  TRACK 06 AUDIO
    TITLE "Prelude"
    PERFORMER "Wendy Stark"
    FLAGS DCP
    INDEX 00 04:49:63
FILE "06. Wendy Stark - Prelude.wav" WAVE
    INDEX 01 00:00:00
  TRACK 07 AUDIO
    TITLE "Sunset at the Kaspah"
    PERFORMER "Kargo"
    FLAGS DCP
    INDEX 00 04:17:62
FILE "07. Kargo - Sunset at the Kaspah.wav" WAVE
    INDEX 01 00:00:00
  TRACK 08 AUDIO
    TITLE "See the Light"
    PERFORMER "Jonathan Still"
    FLAGS DCP
    INDEX 00 05:39:36
FILE "08. Jonathan Still - See the Light.wav" WAVE
    INDEX 01 00:00:00
  TRACK 09 AUDIO
    TITLE "Meeting the Bright Ones"
    PERFORMER "Tim Wheater"
    FLAGS DCP
    INDEX 00 04:42:48
FILE "09. Tim Wheater - Meeting the Bright Ones.wav" WAVE
    INDEX 01 00:00:00
  TRACK 10 AUDIO
    TITLE "The Lost Path"
    PERFORMER "Wychazel"
    FLAGS DCP
    INDEX 00 05:51:35
FILE "10. Wychazel - The Lost Path.wav" WAVE
    INDEX 01 00:00:00
  TRACK 11 AUDIO
    TITLE "Radhe (Short Version)"
    PERFORMER "Pia"
    FLAGS DCP
    INDEX 00 05:14:55
FILE "11. Pia - Radhe (Short Version).wav" WAVE
    INDEX 01 00:00:00
  TRACK 12 AUDIO
    TITLE "Raven"
    PERFORMER "Medwyn Goodall"
    FLAGS DCP
    INDEX 00 05:33:48
FILE "12. Medwyn Goodall - Raven.wav" WAVE
    INDEX 01 00:00:00
  TRACK 13 AUDIO
    TITLE "The Tibetans (Short Version)"
    PERFORMER "Terry Oldfield"
    FLAGS DCP
    INDEX 00 05:15:36
FILE "13. Terry Oldfield - The Tibetans (Short Version).wav" WAVE
    INDEX 01 00:00:00
  TRACK 14 AUDIO
    TITLE "The Greeks (Short Version)"
    PERFORMER "Terry Oldfield"
    FLAGS DCP
    INDEX 00 04:32:44
FILE "14. Terry Oldfield - The Greeks (Short Version).wav" WAVE
    INDEX 01 00:00:00
  TRACK 15 AUDIO
    TITLE "Luna Flamenco"
    PERFORMER "Kargo"
    FLAGS DCP
    INDEX 00 04:19:52
FILE "15. Kargo - Luna Flamenco.wav" WAVE
    INDEX 01 00:00:00
  TRACK 16 AUDIO
    TITLE "The Laughing"
    PERFORMER "Llewellyn"
    FLAGS DCP
    INDEX 00 04:04:67
FILE "16. Llewellyn - The Laughing.wav" WAVE
    INDEX 01 00:00:00

Отчёт ЕАС&#58;

Exact Audio Copy V1.0 beta 3 from 29. August 2011
EAC extraction logfile from 29. January 2014, 7:20
Various Artists / Enigmatic II
Used drive  : SlimtypeeTAU108   3   Adapter: 1  ID: 0
Read mode               : Secure
Utilize accurate stream : Yes
Defeat audio cache      : Yes
Make use of C2 pointers : No
Read offset correction                      : 6
Overread into Lead-In and Lead-Out          : No
Fill up missing offset samples with silence : Yes
Delete leading and trailing silent blocks   : No
Null samples used in CRC calculations       : Yes
Used interface                              : Native Win32 interface for Win NT & 2000
Gap handling                                : Appended to previous track
Used output format              : User Defined Encoder
Selected bitrate                : 1024 kBit/s
Quality                         : High
Add ID3 tag                     : No
Command line compressor         : C:\Program Files (x86)\Exact Audio Copy\Flac\flac.exe
Additional command line options : -8 -V -T "ARTIST=%artist%" -T "TITLE=%title%" -T "ALBUM=%albumtitle%" -T "DATE=%year%" -T "TRACKNUMBER=%tracknr%" -T "GENRE=%genre%" -T "COMMENT=ripped by DrStandBy" %source%
TOC of the extracted CD
     Track |   Start  |  Length  | Start sector | End sector
    ---------------------------------------------------------
        1  |  0:00.00 |  5:35.02 |         0    |    25126
        2  |  5:35.02 |  5:11.58 |     25127    |    48509
        3  | 10:46.60 |  5:00.12 |     48510    |    71021
        4  | 15:46.72 |  5:00.20 |     71022    |    93541
        5  | 20:47.17 |  4:50.63 |     93542    |   115354
        6  | 25:38.05 |  4:18.62 |    115355    |   134766
        7  | 29:56.67 |  5:40.36 |    134767    |   160302
        8  | 35:37.28 |  4:43.48 |    160303    |   181575
        9  | 40:21.01 |  5:52.35 |    181576    |   208010
       10  | 46:13.36 |  5:15.55 |    208011    |   231690
       11  | 51:29.16 |  5:34.48 |    231691    |   256788
       12  | 57:03.64 |  5:16.36 |    256789    |   280524
       13  | 62:20.25 |  4:33.44 |    280525    |   301043
       14  | 66:53.69 |  4:20.52 |    301044    |   320595
       15  | 71:14.46 |  4:05.67 |    320596    |   339037
       16  | 75:20.38 |  4:27.02 |    339038    |   359064
Track  1
     Filename Z:\Lossless\Enigmatic\Various\2006 - VA - Enigmatic II (LSM 385431)\01. Terry Oldfield - Majesty.wav
     Pre-gap length  0:00:02.00
     Peak level 78.1 %
     Extraction speed 1.3 X
     Track quality 100.0 %
     Test CRC 56B3F4F0
     Copy CRC 56B3F4F0
     Cannot be verified as accurate (confidence 1)  [1DE9BEDC], AccurateRip returned [F4D4D493]  (AR v2)
     Copy OK
Track  2
     Filename Z:\Lossless\Enigmatic\Various\2006 - VA - Enigmatic II (LSM 385431)\02. Midori - Gregorian Soul.wav
     Pre-gap length  0:00:01.00
     Peak level 98.2 %
     Extraction speed 1.3 X
     Track quality 99.9 %
     Test CRC 2E7F78B2
     Copy CRC 2E7F78B2
     Cannot be verified as accurate (confidence 1)  [F81B934A], AccurateRip returned [E7E7D8DB]  (AR v2)
     Copy OK
Track  3
     Filename Z:\Lossless\Enigmatic\Various\2006 - VA - Enigmatic II (LSM 385431)\03. Phil Thornton - The Mask of Seduction (Short Version).wav
     Pre-gap length  0:00:01.00
     Peak level 88.1 %
     Extraction speed 1.6 X
     Track quality 100.0 %
     Test CRC 134A0584
     Copy CRC 134A0584
     Cannot be verified as accurate (confidence 1)  [61B4548C], AccurateRip returned [861F3997]  (AR v2)
     Copy OK
Track  4
     Filename Z:\Lossless\Enigmatic\Various\2006 - VA - Enigmatic II (LSM 385431)\04. John Richardson - Spiritual Rhythms (Short Version).wav
     Pre-gap length  0:00:01.00
     Peak level 90.0 %
     Extraction speed 1.7 X
     Track quality 100.0 %
     Test CRC 52D605F8
     Copy CRC 52D605F8
     Cannot be verified as accurate (confidence 1)  [FA935391], AccurateRip returned [A699C2AB]  (AR v2)
     Copy OK
Track  5
     Filename Z:\Lossless\Enigmatic\Various\2006 - VA - Enigmatic II (LSM 385431)\05. Llewellyn - Merlyn and the Crossing.wav
     Pre-gap length  0:00:01.00
     Peak level 79.9 %
     Extraction speed 1.6 X
     Track quality 99.9 %
     Test CRC E22D320A
     Copy CRC E22D320A
     Cannot be verified as accurate (confidence 1)  [70DE55D0], AccurateRip returned [B85D2508]  (AR v2)
     Copy OK
Track  6
     Filename Z:\Lossless\Enigmatic\Various\2006 - VA - Enigmatic II (LSM 385431)\06. Wendy Stark - Prelude.wav
     Pre-gap length  0:00:01.00
     Peak level 98.4 %
     Extraction speed 1.9 X
     Track quality 100.0 %
     Test CRC 1E340C9A
     Copy CRC 1E340C9A
     Cannot be verified as accurate (confidence 1)  [10636A0E], AccurateRip returned [3B722A76]  (AR v2)
     Copy OK
Track  7
     Filename Z:\Lossless\Enigmatic\Various\2006 - VA - Enigmatic II (LSM 385431)\07. Kargo - Sunset at the Kaspah.wav
     Pre-gap length  0:00:01.00
     Peak level 100.0 %
     Extraction speed 2.0 X
     Track quality 100.0 %
     Test CRC 8DAB477C
     Copy CRC 8DAB477C
     Cannot be verified as accurate (confidence 1)  [9BDEC0E4], AccurateRip returned [C1461105]  (AR v2)
     Copy OK
Track  8
     Filename Z:\Lossless\Enigmatic\Various\2006 - VA - Enigmatic II (LSM 385431)\08. Jonathan Still - See the Light.wav
     Pre-gap length  0:00:01.00
     Peak level 100.0 %
     Extraction speed 2.1 X
     Track quality 100.0 %
     Test CRC A914B751
     Copy CRC A914B751
     Cannot be verified as accurate (confidence 1)  [B070174E], AccurateRip returned [86506BBF]  (AR v2)
     Copy OK
Track  9
     Filename Z:\Lossless\Enigmatic\Various\2006 - VA - Enigmatic II (LSM 385431)\09. Tim Wheater - Meeting the Bright Ones.wav
     Pre-gap length  0:00:01.00
     Peak level 91.7 %
     Extraction speed 2.2 X
     Track quality 100.0 %
     Test CRC D95A8076
     Copy CRC D95A8076
     Cannot be verified as accurate (confidence 1)  [2A46D555], AccurateRip returned [CB55358F]  (AR v2)
     Copy OK
Track 10
     Filename Z:\Lossless\Enigmatic\Various\2006 - VA - Enigmatic II (LSM 385431)\10. Wychazel - The Lost Path.wav
     Pre-gap length  0:00:01.00
     Peak level 100.0 %
     Extraction speed 2.1 X
     Track quality 99.9 %
     Test CRC 23CFFCD3
     Copy CRC 23CFFCD3
     Cannot be verified as accurate (confidence 1)  [E11D9EC9], AccurateRip returned [35C4059A]  (AR v2)
     Copy OK
Track 11
     Filename Z:\Lossless\Enigmatic\Various\2006 - VA - Enigmatic II (LSM 385431)\11. Pia - Radhe (Short Version).wav
     Pre-gap length  0:00:01.00
     Peak level 85.7 %
     Extraction speed 2.2 X
     Track quality 99.9 %
     Test CRC 5D89EBD2
     Copy CRC 5D89EBD2
     Cannot be verified as accurate (confidence 1)  [D3503002], AccurateRip returned [899962B6]  (AR v2)
     Copy OK
Track 12
     Filename Z:\Lossless\Enigmatic\Various\2006 - VA - Enigmatic II (LSM 385431)\12. Medwyn Goodall - Raven.wav
     Pre-gap length  0:00:01.00
     Peak level 96.4 %
     Extraction speed 2.5 X
     Track quality 100.0 %
     Test CRC 9E0ABEAD
     Copy CRC 9E0ABEAD
     Cannot be verified as accurate (confidence 1)  [355E1254], AccurateRip returned [0B0ED634]  (AR v2)
     Copy OK
Track 13
     Filename Z:\Lossless\Enigmatic\Various\2006 - VA - Enigmatic II (LSM 385431)\13. Terry Oldfield - The Tibetans (Short Version).wav
     Pre-gap length  0:00:01.00
     Peak level 87.9 %
     Extraction speed 2.5 X
     Track quality 100.0 %
     Test CRC 9C5DE81E
     Copy CRC 9C5DE81E
     Cannot be verified as accurate (confidence 1)  [5EEA6935], AccurateRip returned [D1A73FD0]  (AR v2)
     Copy OK
Track 14
     Filename Z:\Lossless\Enigmatic\Various\2006 - VA - Enigmatic II (LSM 385431)\14. Terry Oldfield - The Greeks (Short Version).wav
     Pre-gap length  0:00:01.00
     Peak level 80.0 %
     Extraction speed 2.6 X
     Track quality 100.0 %
     Test CRC 897673D5
     Copy CRC 897673D5
     Cannot be verified as accurate (confidence 1)  [7BBD3D55], AccurateRip returned [C53C3139]  (AR v2)
     Copy OK
Track 15
     Filename Z:\Lossless\Enigmatic\Various\2006 - VA - Enigmatic II (LSM 385431)\15. Kargo - Luna Flamenco.wav
     Pre-gap length  0:00:01.00
     Peak level 98.8 %
     Extraction speed 2.6 X
     Track quality 100.0 %
     Test CRC D180523D
     Copy CRC D180523D
     Cannot be verified as accurate (confidence 1)  [3C8AAAC3], AccurateRip returned [6FEC3802]  (AR v2)
     Copy OK
Track 16
     Filename Z:\Lossless\Enigmatic\Various\2006 - VA - Enigmatic II (LSM 385431)\16. Llewellyn - The Laughing.wav
     Pre-gap length  0:00:01.00
     Peak level 100.0 %
     Extraction speed 2.7 X
     Track quality 100.0 %
     Test CRC F579E06D
     Copy CRC F579E06D
     Cannot be verified as accurate (confidence 1)  [DC3A2AA9], AccurateRip returned [C3D1B2F1]  (AR v2)
     Copy OK
No tracks could be verified as accurate
You may have a different pressing from the one(s) in the database
No errors occurred
End of status report
---- CUETools DB Plugin V2.1.4
[CTDB TOCID: 3SEKZH2X08bNS99FPlvZwXBrnXY-] disk not present in database
Submit result: 3SEKZH2X08bNS99FPlvZwXBrnXY- has been uploaded
==== Log checksum 326FCC2C033AEB2ECCE2218D075B79D4C1FF19C762AC803CB8577BABC03409A6 ====

Отчёт auCDtect Task manager&#58;

-----------------------
DON'T MODIFY THIS FILE
-----------------------
PERFORMER: auCDtect Task Manager, ver. 1.6.0 RC1 build 1.6.0.1
Copyright (c) 2008-2010 y-soft. All rights reserved
http://y-soft.org
ANALYZER: auCDtect: CD records authenticity detector, version 0.8.2
Copyright (c) 2004 Oleg Berngardt. All rights reserved.
Copyright (c) 2004 Alexander Djourik. All rights reserved.
FILE: 16. Llewellyn - The Laughing.flac
  Size: 31959313 Hash: AF6C862BDAF0A5C6A1F111937B330821 Accuracy: -m0
  Conclusion: CDDA 100%
  Signature: 1F1F9362049CBCC8D024B9C25162C9AD83B6A79F
FILE: 15. Kargo - Luna Flamenco.flac
  Size: 21520848 Hash: E20B0CAD7E175C4E829C6F1B936A13CA Accuracy: -m0
  Conclusion: CDDA 100%
  Signature: CA0D90FBCD87EB12C14DD918FCE6D91D7A02ECDC
FILE: 14. Terry Oldfield - The Greeks (Short Version).flac
  Size: 28291833 Hash: A4EBAEF22CAFE6248CF2825867251C31 Accuracy: -m0
  Conclusion: CDDA 100%
  Signature: AD39292EED33959D442A6D8617A21899CE5C9780
FILE: 13. Terry Oldfield - The Tibetans (Short Version).flac
  Size: 24355348 Hash: A2D742F92EEFA661386B568D3651129F Accuracy: -m0
  Conclusion: CDDA 100%
  Signature: D878622EB1F42C6B472C0ED97C9C389ED0285E3B
FILE: 12. Medwyn Goodall - Raven.flac
  Size: 31752027 Hash: D83B7457A5CE001AEA3F77D8D9561C88 Accuracy: -m0
  Conclusion: CDDA 100%
  Signature: 845D6D417049CFC90DFD7174F8299083AC8012C8
FILE: 11. Pia - Radhe (Short Version).flac
  Size: 35328645 Hash: A234BFE3E5299599ED82181BFFFD0FFB Accuracy: -m0
  Conclusion: CDDA 100%
  Signature: B87FE87F090763869CF89D9AA1D6330FAE7D4B17
FILE: 10. Wychazel - The Lost Path.flac
  Size: 32540450 Hash: BA3CAC88197B1B1BF96D9842BB20F7CF Accuracy: -m0
  Conclusion: CDDA 100%
  Signature: 42D535328B19D933E73CC1165D2E4D7F509371F4
FILE: 09. Tim Wheater - Meeting the Bright Ones.flac
  Size: 29004084 Hash: E95F563CDEECA6EF48BC03F24CEA7B12 Accuracy: -m0
  Conclusion: ???
  Signature: 9192149010E4F5046DED621361D7870946790366
FILE: 08. Jonathan Still - See the Light.flac
  Size: 26597272 Hash: E03EEAE39AC0F9D3C1D7F584BA1D54C4 Accuracy: -m0
  Conclusion: CDDA 100%
  Signature: 07C84476A0CF28F660DA07A9434E04E22B9607C6
FILE: 07. Kargo - Sunset at the Kaspah.flac
  Size: 30176766 Hash: 648ADD8922441B011544BE430F03B3F0 Accuracy: -m0
  Conclusion: CDDA 100%
  Signature: CD33AEE34A9E3539F3F8E15191087508D98B0316
FILE: 06. Wendy Stark - Prelude.flac
  Size: 21870791 Hash: 29CE25F56C184B219FB086E2A4968D69 Accuracy: -m0
  Conclusion: CDDA 85%
  Signature: A7BEEC7528C6AE2C8EAAF61524E8FE5DF33CC5E8
FILE: 05. Llewellyn - Merlyn and the Crossing.flac
  Size: 28875702 Hash: 90A452ED825D32B067A7AF196BC16AC8 Accuracy: -m0
  Conclusion: CDDA 100%
  Signature: A80D55B6A4C9FEB197DF58C12383BDE7034DD5DF
FILE: 04. John Richardson - Spiritual Rhythms (Short Version).flac
  Size: 19898509 Hash: 5383B9EB194C09AB267E5D91567BF72A Accuracy: -m0
  Conclusion: CDDA 100%
  Signature: 49E106DC062F7D5CBF75A70D8BAD249FD6B610D5
FILE: 03. Phil Thornton - The Mask of Seduction (Short Version).flac
  Size: 28881875 Hash: 279FE7DF6AC67DC5C8FBE60D45A9F4AD Accuracy: -m0
  Conclusion: CDDA 100%
  Signature: 500B6CA471C96278713456C7F9C805168A3E8DD6
FILE: 02. Midori - Gregorian Soul.flac
  Size: 31435705 Hash: 4F07F94311CB57C5CCE2D8D424F1984E Accuracy: -m0
  Conclusion: CDDA 99%
  Signature: 55FCF447337D1AB5969E5BD8A69D24D1EFA21C55
FILE: 01. Terry Oldfield - Majesty.flac
  Size: 28813464 Hash: F7631D170F3596C58E39EB864B7B5198 Accuracy: -m0
  Conclusion: CDDA 100%
  Signature: 8422E71B310A49477057A66EA7104CA3FCF18DC8
-Дополнительная информация: Энигматичные мелодии, таинственные голоса, мистическая, экзотичная музыка воздействуют на эмоциональный фон человека, добираясь до самых далеких глубин его души. Вокруг слушателя возникает атмосфера спокойствия, задумчивой отрешенности, светлой гармонии.-
Яндекс.Метрика
Рейтинг@Mail.ru