[ Сегодня на трекере фрилич! Идет свободное скачивание без начисления Download ]

Dieter Bohlen - Dieter Der Film (2006) [FLAC|Lossless]<Disco, Synth-pop, Soundtrack>

 

Создавать темы 12-Дек-2014 19:07

-Dieter Bohlen - Dieter Der Film (2006)- Год: 2006
Лейбл: Hansa ‎– 82876 81322 2
Формат: CD, Album
Страна: Germany
Жанр: Disco, Synth-pop, Soundtrack
Продолжительность: 01:07:46
Кодек: FLAC
Тип рипа: image+.cue
Битрейт: Lossless
Треклист:
01. Dieter Bohlen - Gasoline (Titelsong Aus Dieter Der Film) 3:40
02. Dieter Bohlen - Take Me To The Clouds 3:17
03. Modern Talking - Shooting Star (Unveröffentlichter Modern Talking Titel) 4:09
04. Dieter Bohlen - If I Were You 3:29
05. Dieter Bohlen - Bizarre Bizarre 3:45
06. Dieter Bohlen - Tears May Go 3:43
07. Dieter Bohlen - Don't Let Me Down 3:50
08. Dieter Bohlen - Love Is Stronger 3:44
09. Dieter Bohlen - Senorita 3:55
10. Dieter Bohlen - The Way You Smile 3:28
11. Dieter Bohlen - How Will I Know 3:11
12. Dieter Bohlen - I Promised You 3:25
Modern Talking Bonustracks:
13. Modern Talking - You're My Heart, You're My Soul 5:33
14. Modern Talking - You Can Win If You Want 3:49
15. Modern Talking - Cheri Cheri Lady 3:45
16. Modern Talking - Brother Louie 3:40
17. Modern Talking - Atlantis Is Calling (S.O.S. For Love) 3:48
18. Modern Talking - Geronimo's Cadillac 3:17-Other [Characters By] – Trickompany Filmproduktion GmbH
Producer – Dieter Bohlen, Jeo Mezei (tracks: 2, 5, 7, 9, 11), Lalo Titenkov (tracks: 1, 4, 6, 8, 12), Louis Rodriguez (tracks: 3, 13 to 18)
Written-By – Dieter Bohlen
-

Cue - файл&#58;

REM GENRE EuroDisco
REM DATE 2006
REM DISCID F20FE212
REM COMMENT "ExactAudioCopy v0.99pb5"
PERFORMER "Dieter Bohlen"
TITLE "Dieter Der Film"
FILE "Dieter Bohlen - Dieter Der Film.flac" WAVE
  TRACK 01 AUDIO
    TITLE "Gasoline"
    PERFORMER "Dieter Bohlen"
    INDEX 01 00:00:00
  TRACK 02 AUDIO
    TITLE "Take Me To The Clouds"
    PERFORMER "Dieter Bohlen"
    INDEX 00 03:40:13
    INDEX 01 03:40:21
  TRACK 03 AUDIO
    TITLE "Shooting Star"
    PERFORMER "Dieter Bohlen"
    INDEX 00 06:57:33
    INDEX 01 06:58:08
  TRACK 04 AUDIO
    TITLE "If I Were You"
    PERFORMER "Dieter Bohlen"
    INDEX 00 11:07:43
    INDEX 01 11:07:51
  TRACK 05 AUDIO
    TITLE "Bizarre Bizarre"
    PERFORMER "Dieter Bohlen"
    INDEX 01 14:37:41
  TRACK 06 AUDIO
    TITLE "Tears May Go"
    PERFORMER "Dieter Bohlen"
    INDEX 01 18:23:28
  TRACK 07 AUDIO
    TITLE "Don't Let Me Down"
    PERFORMER "Dieter Bohlen"
    INDEX 00 22:07:11
    INDEX 01 22:07:14
  TRACK 08 AUDIO
    TITLE "Love Is Stronger"
    PERFORMER "Dieter Bohlen"
    INDEX 01 25:58:09
  TRACK 09 AUDIO
    TITLE "Senorita"
    PERFORMER "Dieter Bohlen"
    INDEX 00 29:43:00
    INDEX 01 29:44:07
  TRACK 10 AUDIO
    TITLE "The Way You Smile"
    PERFORMER "Dieter Bohlen"
    INDEX 00 33:39:31
    INDEX 01 33:40:01
  TRACK 11 AUDIO
    TITLE "How I Will Know"
    PERFORMER "Dieter Bohlen"
    INDEX 00 37:09:05
    INDEX 01 37:10:23
  TRACK 12 AUDIO
    TITLE "I Promised You"
    PERFORMER "Dieter Bohlen"
    INDEX 00 40:22:05
    INDEX 01 40:23:04
  TRACK 13 AUDIO
    TITLE "You're My Heart,You're My Soul"
    PERFORMER "Dieter Bohlen"
    INDEX 00 43:48:74
    INDEX 01 43:49:46
  TRACK 14 AUDIO
    TITLE "You Can Win If You Want"
    PERFORMER "Dieter Bohlen"
    INDEX 00 49:23:38
    INDEX 01 49:23:73
  TRACK 15 AUDIO
    TITLE "Cherie Cherie Lady"
    PERFORMER "Dieter Bohlen"
    INDEX 00 53:13:12
    INDEX 01 53:14:20
  TRACK 16 AUDIO
    TITLE "Brother Louie"
    PERFORMER "Dieter Bohlen"
    INDEX 00 56:59:46
    INDEX 01 57:00:31
  TRACK 17 AUDIO
    TITLE "Atlantis Is Calling (S.O.S. For Love)"
    PERFORMER "Dieter Bohlen"
    INDEX 00 60:40:55
    INDEX 01 60:41:11
  TRACK 18 AUDIO
    TITLE "Geronimo's Cadillac"
    PERFORMER "Dieter Bohlen"
    INDEX 01 64:29:21

Отчёт ЕАС&#58;

Exact Audio Copy V0.99 prebeta 5 from 4. May 2009
Отчёт EAC об извлечении, выполненном 15. мая 2009, 13:08
Dieter Bohlen / Dieter Der Film
Дисковод: ASUS    DRW-2014S1T   Adapter: 4  ID: 0
Режим чтения                 : Достоверность
Использование точного потока : Да
Отключение кэша аудио        : Да
Использование указателей C2  : Нет
Коррекция смещения при чтении                     : 6
Способность читать области Lead-in и Lead-out     : Нет
Заполнение пропущенных сэмплов тишиной            : Да
Удаление блоков с тишиной в начале и конце        : Нет
При вычислениях CRC использовались нулевые сэмплы : Да
Интерфейс                                         : Установленный внешний ASPI-интерфейс
Выходной формат : Внутренние WAV-операции
Формат сэмплов  : 44.100 Гц; 16 бит; стерео
TOC извлечённого CD
     Трек |   Старт  | Длительность | Начальный сектор | Конечный сектор
    ---------------------------------------------------------------------
       1  |  0:00.00 |    3:40.21   |           0      |      16520
       2  |  3:40.21 |    3:17.62   |       16521      |      31357
       3  |  6:58.08 |    4:09.43   |       31358      |      50075
       4  | 11:07.51 |    3:29.65   |       50076      |      65815
       5  | 14:37.41 |    3:45.62   |       65816      |      82752
       6  | 18:23.28 |    3:43.61   |       82753      |      99538
       7  | 22:07.14 |    3:50.70   |       99539      |     116858
       8  | 25:58.09 |    3:45.73   |      116859      |     133806
       9  | 29:44.07 |    3:55.69   |      133807      |     151500
      10  | 33:40.01 |    3:30.22   |      151501      |     167272
      11  | 37:10.23 |    3:12.56   |      167273      |     181728
      12  | 40:23.04 |    3:26.42   |      181729      |     197220
      13  | 43:49.46 |    5:34.27   |      197221      |     222297
      14  | 49:23.73 |    3:50.22   |      222298      |     239569
      15  | 53:14.20 |    3:46.11   |      239570      |     256530
      16  | 57:00.31 |    3:40.55   |      256531      |     273085
      17  | 60:41.11 |    3:48.10   |      273086      |     290195
      18  | 64:29.21 |    3:17.45   |      290196      |     305015
Характеристики диапазона извлечения и сообщения об ошибках
Выбранный диапазон
     Имя файла Z:\Temp\Dieter Bohlen - Dieter Der Film.wav
     Пиковый уровень 99.5 %
     Качество диапазона 100.0 %
     CRC теста 5AACC63D
     CRC копии 5AACC63D
     Копирование... OK
Ошибок не произошло
AccurateRip: сводка
Трек  1  точное извлечение (доверие 3)  [61A6DE2F]
Трек  2  точное извлечение (доверие 3)  [9A1349AD]
Трек  3  точное извлечение (доверие 3)  [7622B6BC]
Трек  4  точное извлечение (доверие 3)  [E06D2A02]
Трек  5  точное извлечение (доверие 3)  [D57BB81E]
Трек  6  точное извлечение (доверие 3)  [2D29B131]
Трек  7  точное извлечение (доверие 3)  [D603531D]
Трек  8  точное извлечение (доверие 3)  [46295FDB]
Трек  9  точное извлечение (доверие 3)  [AF525BE6]
Трек 10  точное извлечение (доверие 4)  [7FE9E35C]
Трек 11  точное извлечение (доверие 3)  [501D8AF0]
Трек 12  точное извлечение (доверие 3)  [A2DCFC12]
Трек 13  точное извлечение (доверие 3)  [B7403812]
Трек 14  точное извлечение (доверие 3)  [20478542]
Трек 15  точное извлечение (доверие 3)  [552F4DCA]
Трек 16  точное извлечение (доверие 3)  [E79AD3CA]
Трек 17  точное извлечение (доверие 3)  [D60E55D8]
Трек 18  точное извлечение (доверие 3)  [DEA3571E]
Все треки извлечены точно
Конец отчёта

Отчёт auCDtect Task manager&#58;

-----------------------
DON'T MODIFY THIS FILE
-----------------------
PERFORMER: auCDtect Task Manager, ver. 1.0.0 Stable build 1.0.0.0
Copyright (c) 2008, 2009 y-soft. All rights reserved
http://y-soft.110mb.com
ANALYZER: auCDtect: CD records authenticity detector, version 0.8.2
Copyright (c) 2004 Oleg Berngardt. All rights reserved.
Copyright (c) 2004 Alexander Djourik. All rights reserved.
FILE: Dieter Bohlen - Dieter Der Film.flac
  Size: 519818403 Hash: 14B9519D48F6DF969106C3378506E955 Accuracy: -m0
  Conclusion: CDDA 100%
  Signature: EC5413A5BA251571C50A49CDDF973B3162E04B2C
-
Яндекс.Метрика
Рейтинг@Mail.ru