Modern Talking - All Instrumentals (2003) Bootleg [FLAC (image+.cue)|Lossless]<Disco, Pop, Instrumental>

 

Создавать темы 12-Дек-2014 19:06

-Modern Talking - All Instrumentals (2003) Bootleg- Год: 2003
Жанр: Disco, Pop, Instrumental
Страна-производитель диска: Europe
Издатель (лейбл): Eurodisco Records
Номер по каталогу: CD063
Продолжительность: 01:19:53
Источник: mikeo2005
Наличие сканов в содержимом раздачи: да
Кодек: FLAC
Тип рипа: image+.cue
Битрейт: Lossless
Треклист:
01. You're My Heart, You're My Soul 4:01
02. You Can Win If You Want 3:55
03. There's Too Much Blue In Missing You 4:41
04. Diamonds Never Made A Lady 3:50
05. The Night Is Yours The Night Is Mine 3:28
06. Lucky Guy 3:32
07. Cheri Cheri Lady 3:37
08. Brother Louie 4:06
09. Atlantis Is Calling (S.O.S. For Love) 3:59
10. Hey You 5:19
11. Geronimo's Cadillac 3:12
12. Jet Airliner 3:48
13. You're My Heart, You're My Soul '98 3:50
14. No Face No Name No Number 3:59
15. Win The Race 3:39
16. Cinderella Girl 3:34
17. Ready For The Victory 3:31
18. TV Makes The Superstar 3:44
SPECIAL BONUS TRACKS:
19. You're My Heart, You're My Soul (playback version) 3:30
20. You Can Win If You Want (playback version) 3:36
21. Cheri Cheri Lady (playback version) 3:58

Cue - файл&#58;

REM GENRE Disco
REM DATE 2003
REM DISCID 3E12B915
REM COMMENT "ExactAudioCopy v1.0b3"
PERFORMER "Modern Talking"
TITLE "All Instrumentals"
FILE "Modern Talking - All Instrumentals.flac" WAVE
  TRACK 01 AUDIO
    TITLE "You're My Heart, You're My Soul"
    PERFORMER "Modern Talking"
    INDEX 01 00:00:00
  TRACK 02 AUDIO
    TITLE "You Can Win If You Want"
    PERFORMER "Modern Talking"
    INDEX 01 03:59:29
  TRACK 03 AUDIO
    TITLE "There's Too Much Blue In Missing You"
    PERFORMER "Modern Talking"
    INDEX 01 07:40:01
  TRACK 04 AUDIO
    TITLE "Diamonds Never Made A Lady"
    PERFORMER "Modern Talking"
    INDEX 01 12:11:03
  TRACK 05 AUDIO
    TITLE "The Night Is Yours The Night Is Mine"
    PERFORMER "Modern Talking"
    INDEX 01 15:57:65
  TRACK 06 AUDIO
    TITLE "Lucky Guy"
    PERFORMER "Modern Talking"
    INDEX 01 19:26:26
  TRACK 07 AUDIO
    TITLE "Cheri Cheri Lady"
    PERFORMER "Modern Talking"
    INDEX 01 22:57:30
  TRACK 08 AUDIO
    TITLE "Brother Louie"
    PERFORMER "Modern Talking"
    INDEX 01 26:33:46
  TRACK 09 AUDIO
    TITLE "Atlantis Is Calling (S.O.S. For Love)"
    PERFORMER "Modern Talking"
    INDEX 01 30:39:15
  TRACK 10 AUDIO
    TITLE "Hey You"
    PERFORMER "Modern Talking"
    INDEX 01 34:35:14
  TRACK 11 AUDIO
    TITLE "Geronimo's Cadillac"
    PERFORMER "Modern Talking"
    INDEX 01 39:40:27
  TRACK 12 AUDIO
    TITLE "Jet Airliner"
    PERFORMER "Modern Talking"
    INDEX 01 42:54:23
  TRACK 13 AUDIO
    TITLE "You're My Heart, You're My Soul '98"
    PERFORMER "Modern Talking"
    INDEX 01 46:44:27
  TRACK 14 AUDIO
    TITLE "No Face No Name No Number"
    PERFORMER "Modern Talking"
    INDEX 01 50:34:40
  TRACK 15 AUDIO
    TITLE "Win The Race"
    PERFORMER "Modern Talking"
    INDEX 01 54:32:33
  TRACK 16 AUDIO
    TITLE "Cinderella Girl"
    PERFORMER "Modern Talking"
    INDEX 01 58:10:60
  TRACK 17 AUDIO
    TITLE "Ready For The Victory"
    PERFORMER "Modern Talking"
    INDEX 01 61:43:69
  TRACK 18 AUDIO
    TITLE "TV Makes The Superstar"
    PERFORMER "Modern Talking"
    INDEX 01 65:13:53
  TRACK 19 AUDIO
    TITLE "You're My Heart, You're My Soul (playback version)"
    PERFORMER "Modern Talking"
    INDEX 01 68:58:09
  TRACK 20 AUDIO
    TITLE "You Can Win If You Want (playback version)"
    PERFORMER "Modern Talking"
    INDEX 01 72:26:53
  TRACK 21 AUDIO
    TITLE "Cheri Cheri Lady (playback version)"
    PERFORMER "Modern Talking"
    INDEX 01 75:59:33

Отчёт ЕАС&#58;

Exact Audio Copy V1.0 beta 3 from 29. August 2011
EAC extraction logfile from 21. October 2012, 15:36
Modern Talking / All Instrumentals
Used drive  : ASUS    SDRW-08D1S-U   Adapter: 3  ID: 0
Read mode               : Secure
Utilize accurate stream : Yes
Defeat audio cache      : Yes
Make use of C2 pointers : No
Read offset correction                      : 103
Overread into Lead-In and Lead-Out          : No
Fill up missing offset samples with silence : Yes
Delete leading and trailing silent blocks   : No
Null samples used in CRC calculations       : Yes
Used interface                              : Installed external ASPI interface
Used output format              : User Defined Encoder
Selected bitrate                : 768 kBit/s
Quality                         : High
Add ID3 tag                     : No
Command line compressor         : C:\Program Files\Exact Audio Copy\FLAC\FLAC.EXE
Additional command line options : -6 -V -T "ARTIST=%artist%" -T "TITLE=%title%" -T "ALBUM=%albumtitle%" -T "DATE=%year%" -T "TRACKNUMBER=%tracknr%" -T "GENRE=%genre%" -T "COMMENT=%comment%" -T "BAND=%albuminterpret%" -T "ALBUMARTIST=%albuminterpret%" -T "COMPOSER=%composer%" %haslyrics%--tag-from-file=LYRICS="%lyricsfile%"%haslyrics% -T "DISCNUMBER=%cdnumber%" -T "TOTALDISCS=%totalcds%" -T "TOTALTRACKS=%numtracks%" %hascover%--picture="%coverfile%"%hascover% %source% -o %dest%
TOC of the extracted CD
     Track |   Start  |  Length  | Start sector | End sector
    ---------------------------------------------------------
        1  |  0:00.00 |  3:59.29 |         0    |    17953
        2  |  3:59.29 |  3:40.47 |     17954    |    34500
        3  |  7:40.01 |  4:31.02 |     34501    |    54827
        4  | 12:11.03 |  3:46.62 |     54828    |    71839
        5  | 15:57.65 |  3:28.36 |     71840    |    87475
        6  | 19:26.26 |  3:31.04 |     87476    |   103304
        7  | 22:57.30 |  3:36.16 |    103305    |   119520
        8  | 26:33.46 |  4:05.44 |    119521    |   137939
        9  | 30:39.15 |  3:55.74 |    137940    |   155638
       10  | 34:35.14 |  5:05.13 |    155639    |   178526
       11  | 39:40.27 |  3:13.71 |    178527    |   193072
       12  | 42:54.23 |  3:50.04 |    193073    |   210326
       13  | 46:44.27 |  3:50.13 |    210327    |   227589
       14  | 50:34.40 |  3:57.68 |    227590    |   245432
       15  | 54:32.33 |  3:38.27 |    245433    |   261809
       16  | 58:10.60 |  3:33.09 |    261810    |   277793
       17  | 61:43.69 |  3:29.59 |    277794    |   293527
       18  | 65:13.53 |  3:44.31 |    293528    |   310358
       19  | 68:58.09 |  3:28.44 |    310359    |   326002
       20  | 72:26.53 |  3:32.55 |    326003    |   341957
       21  | 75:59.33 |  3:53.63 |    341958    |   359495
Range status and errors
Selected range
     Filename C:\MODERN TALKING - Instrumentals\Modern Talking - All Instrumentals.wav
     Peak level 89.1 %
     Extraction speed 1.7 X
     Range quality 100.0 %
     Test CRC 276F6EB5
     Copy CRC 276F6EB5
     Copy OK
No errors occurred
End of status report

Отчёт auCDtect Task manager&#58;

-----------------------
DON'T MODIFY THIS FILE
-----------------------
PERFORMER: auCDtect Task Manager, ver. 1.0.0 Stable build 1.0.0.0
Copyright (c) 2008, 2009 y-soft. All rights reserved
http://y-soft.110mb.com
ANALYZER: auCDtect: CD records authenticity detector, version 0.8.2
Copyright (c) 2004 Oleg Berngardt. All rights reserved.
Copyright (c) 2004 Alexander Djourik. All rights reserved.
FILE: Modern Talking - All Instrumentals.flac
  Size: 572583050 Hash: 954278244071C061D2F4307B7203A41A Accuracy: -m0
  Conclusion: CDDA 100%
  Signature: 753B5253CECE47669E9969A350989504E4F8776F
-
Яндекс.Метрика
Рейтинг@Mail.ru