[ Сегодня на трекере фрилич! Идет свободное скачивание без начисления Download ]

Яак Йоала исполняет песни Давида Тухманова - Сама любовь (2007) [APE|Lossless]<Soul, Pop>

 

Создавать темы 12-Дек-2014 19:04

-Яак Йоала исполняет песни Давида Тухманова - Сама любовь (2007)- Год: 2007
Лейбл: Bomba Music ‎– BoMB 033-300
Формат: CD, Compilation
Страна (Производитель диска): Russia
Жанр: Soul, Pop
Продолжительность: 00:50:07
Кодек: APE
Битрейт: Lossless
Тип рипа: image+.cue
Треклист:
01. Здравствуй
02. Фотографии любимых
03. Ещё не поздно
04. Как жаль
05. Не забывай
06. Предсказание
07. Прощальный день
08. Сама любовь
09. Что-то было
10. Свадебные кони
11. Спасибо, любовь

CUE - файл&#58;

REM GENRE Pop
REM DATE 2007
REM DISCID 8D0BBF0B
REM COMMENT "ExactAudioCopy v0.99pb4"
PERFORMER "Яак Йоала"
TITLE "Сама любовь"
FILE "Яак Йоала - Сама любовь.ape" WAVE
TRACK 01 AUDIO
TITLE "Здравствуй"
PERFORMER "Яак Йоала"
INDEX 01 00:00:00
TRACK 02 AUDIO
TITLE "Фотографии любимых"
PERFORMER "Яак Йоала"
INDEX 01 05:18:50
TRACK 03 AUDIO
TITLE "Ещё не поздно"
PERFORMER "Яак Йоала"
INDEX 01 09:13:73
TRACK 04 AUDIO
TITLE "Как жаль"
PERFORMER "Яак Йоала"
INDEX 01 14:43:28
TRACK 05 AUDIO
TITLE "Не забывай"
PERFORMER "Яак Йоала"
INDEX 01 20:28:62
TRACK 06 AUDIO
TITLE "Предсказание"
PERFORMER "Яак Йоала"
INDEX 01 24:41:48
TRACK 07 AUDIO
TITLE "Прощальный день"
PERFORMER "Яак Йоала"
INDEX 01 27:39:03
TRACK 08 AUDIO
TITLE "Сама любовь"
PERFORMER "Яак Йоала"
INDEX 01 32:41:13
TRACK 09 AUDIO
TITLE "Что-то было"
PERFORMER "Яак Йоала"
INDEX 01 37:12:55
TRACK 10 AUDIO
TITLE "Свадебные кони"
PERFORMER "Яак Йоала"
INDEX 01 41:32:59
TRACK 11 AUDIO
TITLE "Спасибо, любовь"
PERFORMER "Яак Йоала"
INDEX 01 45:20:23

Отчёт ЕАС&#58;

Exact Audio Copy V0.99 prebeta 4 from 23. January 2008
Отчёт EAC об извлечении, выполненном 2. сентября 2008, 19:23
Яак Йоала / Сама любовь
Дисковод: Optiarc DVD RW AD-5170A   Adapter: 0  ID: 0
Режим чтения                 : Достоверность
Использование точного потока : Да
Отключение кэша аудио        : Да
Использование указателей C2  : Нет
Коррекция смещения при чтении                     : 48
Способность читать области Lead-in и Lead-out     : Нет
Заполнение пропущенных сэмплов тишиной            : Да
Удаление блоков с тишиной в начале и конце        : Нет
При вычислениях CRC использовались нулевые сэмплы : Да
Интерфейс                                         : Встроенный Win32-интерфейс для Win NT/2000
Выходной формат : Внутренние WAV-операции
Формат сэмплов  : 44.100 Гц; 16 бит; стерео
TOC извлечённого CD
     Трек |   Старт  | Длительность | Начальный сектор | Конечный сектор
    ---------------------------------------------------------------------
       1  |  0:00.00 |    5:18.50   |           0      |      23899
       2  |  5:18.50 |    3:55.23   |       23900      |      41547
       3  |  9:13.73 |    5:29.30   |       41548      |      66252
       4  | 14:43.28 |    5:45.34   |       66253      |      92161
       5  | 20:28.62 |    4:12.61   |       92162      |     111122
       6  | 24:41.48 |    2:57.30   |      111123      |     124427
       7  | 27:39.03 |    5:02.10   |      124428      |     147087
       8  | 32:41.13 |    4:31.42   |      147088      |     167454
       9  | 37:12.55 |    4:20.04   |      167455      |     186958
      10  | 41:32.59 |    3:47.39   |      186959      |     204022
      11  | 45:20.23 |    4:46.67   |      204023      |     225539
Характеристики диапазона извлечения и сообщения об ошибках
Выбранный диапазон
     Имя файла D:\Audio\Я.Йоала\Яак Йоала - Сама любовь.wav
     Пиковый уровень 92.8 %
     Качество диапазона 99.9 %
     CRC копии C61069D0
     Копирование... OK
Ошибок не произошло
Конец отчёта

Отчёт auCDtect Task manager&#58;

-----------------------
DON'T MODIFY THIS FILE
-----------------------
PERFORMER: auCDtect Task Manager, ver. 1.0.0 Stable build 1.0.0.0
Copyright (c) 2008, 2009 y-soft. All rights reserved
http://y-soft.110mb.com
ANALYZER: auCDtect: CD records authenticity detector, version 0.8.2
Copyright (c) 2004 Oleg Berngardt. All rights reserved.
Copyright (c) 2004 Alexander Djourik. All rights reserved.
FILE: Яак Йоала - Сама любовь.ape
  Size: 277009324 Hash: C558A468FDE51D8F75EA66C95C8DE8F6 Accuracy: -m0
  Conclusion: CDDA 100%
  Signature: 7ECEC91A71BD3CCE831972566A3B71425071A3DD
-

Дополнительная информация&#58;

Я́ак (Яак А́рнович) Йо́ала (эст. Jaak Joala; 26 июня 1950 - 25 сентября 2014) — эстонский советский эстрадный певец, один из самых популярных артистов в СССР 1970 — начале 1980-х годов.
Йоала родился в музыкальной семье (его мать была музыковедом и работала в Государственной филармонии Эстонской ССР) с детства обучался игре на фортепиано и флейте.
Во второй половине 1960-x годов Йоала был бас-гитаристом и солистом различных эстонских групп и ансамблей, к этому же времени относятся и первые его записи на радио. В 1970 году он выиграл Республиканский конкурс комсомольской песни, год спустя — конкурс молодых эстрадных певцов.
В 1970-е годы певец неоднократно получал премии различных конкурсов и фестивалей песни. Высшим его достижением стало завоевание специального приза жюри на международном конкурсе песни в Сопоте в 1975 году. Он сотрудничал с крупнейшими советскими эстрадными композиторами того времени — Давидом Тухмановым, Александром Зацепиным, Раймондом Паулсом и др.
Йоала виртуозно владел различными музыкальными инструментами и иногда сам исполнял инструментальные партии на записях собственных песен — сохранились записи его исполнения на фортепиано, флейте, гитаре, ударных.С 1988 года Йоала покинул советскую сцену, а в середине 1990-х практически прекратил концертные выступления. В настоящее время он занимает пост президента фирмы «Грамекс» — общественной организации, защищающей авторские права эстонских музыкантов, занимается продюсированием молодых певцов.
-
Яндекс.Метрика
Рейтинг@Mail.ru