(NewAge) [CD] VA - Enigmatic - 2006, FLAC (image+.cue), lossless

 

Создавать темы 08-Дек-2014 20:10

VA - Enigmatic- Жанр: NewAge
Носитель: CD
Страна-производитель диска: Россия
Год издания: 2006
Издатель (лейбл): Landy Star Music
Номер по каталогу: LSM 385042
Аудиокодек: FLAC (*.flac)
Тип рипа: image+.cue
Битрейт аудио: lossless
Продолжительность: 01:19:57
Источник (релизер): uamva
Наличие сканов в содержимом раздачи: да-Треклист:
01. Resurrection (Terry Oldfield) - 7:34
02. Animus Anima (Wendy Stark) - 4:24
03. Voices In the Wind (Terry Oldfield) - 3:12
04. The Power Of Grace (John Richardson) - 4:42
05. Whispering Shadows (Howard Green) - 5:36
06. The Circle Of Knowledge (Brain Carter) - 5:53
07. Devotion (Midori) - 4:25
08. Mermaids (Juliana) - 6:01
09. Devinity (Medwyn Goodall) - 5:29
10. Cloud Trees (Midori) - 4:49
11. Through the Mysts (Llewellyn) - 4:44
12. Siren Song (Pia) - 6:05
13. Ipmente (Global Collecrive) - 3:57
14. Lost City (Medwyn Goodall) - 6:57
15. Kiss Of the Sorcerer (Phil Thornton) - 6:10-Энигматичные мелодии, таинственные голоса, мистическая, экзотическая музыка воздействуют на эмоциональный фон человека, добираясь до самых далёких глубин его души. Вокруг слушателя возникает атмосфера спокойствия, задумчивой отрешённости, светлой гармонии.

Лог создания рипа

Exact Audio Copy V1.0 beta 3 from 29. August 2011
Отчёт EAC об извлечении, выполненном 6. декабря 2014, 11:19
Various / Enigmatic
Дисковод: PIONEER DVD-RW  DVR-215   Adapter: 3  ID: 0
Режим чтения                 : Достоверность
Использование точного потока : Да
Отключение кэша аудио        : Да
Использование указателей C2  : Нет
Коррекция смещения при чтении                     : 48
Способность читать области Lead-in и Lead-out     : Нет
Заполнение пропущенных сэмплов тишиной            : Да
Удаление блоков с тишиной в начале и конце        : Нет
При вычислениях CRC использовались нулевые сэмплы : Да
Интерфейс                                         : Встроенный Win32-интерфейс для Win NT/2000
Выходной формат : Внутренние WAV-операции
Формат сэмплов  : 44.100 Гц; 16 бит; стерео
TOC извлечённого CD
     Трек |   Старт  | Длительность | Начальный сектор | Конечный сектор
    ---------------------------------------------------------------------
       1  |  0:00.00 |    7:34.37   |           0      |      34086
       2  |  7:34.37 |    4:23.54   |       34087      |      53865
       3  | 11:58.16 |    3:11.64   |       53866      |      68254
       4  | 15:10.05 |    4:41.47   |       68255      |      89376
       5  | 19:51.52 |    5:36.07   |       89377      |     114583
       6  | 25:27.59 |    5:53.12   |      114584      |     141070
       7  | 31:20.71 |    4:24.51   |      141071      |     160921
       8  | 35:45.47 |    6:00.45   |      160922      |     187966
       9  | 41:46.17 |    5:29.17   |      187967      |     212658
      10  | 47:15.34 |    4:49.31   |      212659      |     234364
      11  | 52:04.65 |    4:44.01   |      234365      |     255665
      12  | 56:48.66 |    6:04.50   |      255666      |     283015
      13  | 62:53.41 |    3:56.53   |      283016      |     300768
      14  | 66:50.19 |    6:57.05   |      300769      |     332048
      15  | 73:47.24 |    6:09.65   |      332049      |     359788
Характеристики диапазона извлечения и сообщения об ошибках
Выбранный диапазон
     Имя файла C:\2\Various - Enigmatic.wav
     Пиковый уровень 92.1 %
     Скорость извлечения 8.4 X
     Качество диапазона 100.0 %
     CRC копии 00299F98
     Копирование... OK
Ошибок не произошло
AccurateRip: сводка
Трек  1  точность не определена (достоверность 2)  [BB82A4CF], AccurateRip вернул [6B87AAE2]  (AR v2)
Трек  2  точность не определена (достоверность 2)  [8DF82431], AccurateRip вернул [A2C59E91]  (AR v2)
Трек  3  точность не определена (достоверность 2)  [67764EB3], AccurateRip вернул [582D56C7]  (AR v2)
Трек  4  точность не определена (достоверность 2)  [A7FFBD11], AccurateRip вернул [1F08CE95]  (AR v2)
Трек  5  точность не определена (достоверность 2)  [1A9E7C8E], AccurateRip вернул [A4901E09]  (AR v2)
Трек  6  точность не определена (достоверность 2)  [3F072C3A], AccurateRip вернул [239F13A6]  (AR v2)
Трек  7  точность не определена (достоверность 2)  [C2735CA5], AccurateRip вернул [05EC31C7]  (AR v2)
Трек  8  точность не определена (достоверность 2)  [FE8A61D8], AccurateRip вернул [D5ECDC6A]  (AR v2)
Трек  9  точность не определена (достоверность 2)  [B6698EA1], AccurateRip вернул [E086A65F]  (AR v2)
Трек 10  точность не определена (достоверность 2)  [281CAF1A], AccurateRip вернул [3D69410B]  (AR v2)
Трек 11  точность не определена (достоверность 2)  [F6FDCC15], AccurateRip вернул [CC551821]  (AR v2)
Трек 12  точность не определена (достоверность 2)  [A73EBE44], AccurateRip вернул [38761E10]  (AR v2)
Трек 13  точность не определена (достоверность 2)  [546C80D3], AccurateRip вернул [20953C5E]  (AR v2)
Трек 14  точность не определена (достоверность 2)  [7A6AB680], AccurateRip вернул [EC12B643]  (AR v2)
Трек 15  : извлечено точно (доверие 1)  [B8BC007A]  (AR v1)
1 трек(и) скопированы точно
14 трек(и) не удалось проверить на точность
Некоторые треки не прошли проверку на точность
Конец отчёта
==== Контрольная сумма отчёта 4CCBC42D948A70BA8F4299D73AE2F8F26C9BCCD60D7B0EB3D9A071FB0E6BC41B ====

Содержание индексной карты (.CUE)

REM GENRE "New Age"
REM DATE 2006
REM DISCID CD12BD0F
REM COMMENT "ExactAudioCopy v1.0b3"
PERFORMER "Various"
TITLE "Enigmatic"
FILE "2006 Enigmatic.flac" WAVE
  TRACK 01 AUDIO
    TITLE "Resurrection"
    PERFORMER "Terry Oldfield"
    FLAGS DCP
    INDEX 01 00:00:00
  TRACK 02 AUDIO
    TITLE "Animus Anima"
    PERFORMER "Wendy Stark"
    FLAGS DCP
    INDEX 00 07:33:37
    INDEX 01 07:34:37
  TRACK 03 AUDIO
    TITLE "Voices In the Wind"
    PERFORMER "Terry Oldfield"
    FLAGS DCP
    INDEX 00 11:57:16
    INDEX 01 11:58:16
  TRACK 04 AUDIO
    TITLE "The Power Of Grace"
    PERFORMER "John Richardson"
    FLAGS DCP
    INDEX 00 15:09:05
    INDEX 01 15:10:05
  TRACK 05 AUDIO
    TITLE "Whispering Shadows"
    PERFORMER "Howard Green"
    FLAGS DCP
    INDEX 00 19:50:52
    INDEX 01 19:51:52
  TRACK 06 AUDIO
    TITLE "The Circle Of Knowledge"
    PERFORMER "Brain Carter"
    FLAGS DCP
    INDEX 00 25:26:59
    INDEX 01 25:27:59
  TRACK 07 AUDIO
    TITLE "Devotion"
    PERFORMER "Midori"
    FLAGS DCP
    INDEX 00 31:19:71
    INDEX 01 31:20:71
  TRACK 08 AUDIO
    TITLE "Mermaids"
    PERFORMER "Juliana"
    FLAGS DCP
    INDEX 00 35:44:49
    INDEX 01 35:45:47
  TRACK 09 AUDIO
    TITLE "Devinity"
    PERFORMER "Medwyn Goodall"
    FLAGS DCP
    INDEX 00 41:45:17
    INDEX 01 41:46:17
  TRACK 10 AUDIO
    TITLE "Cloud Trees"
    PERFORMER "Midori"
    FLAGS DCP
    INDEX 00 47:14:34
    INDEX 01 47:15:34
  TRACK 11 AUDIO
    TITLE "Through the Mysts"
    PERFORMER "Llewellyn"
    FLAGS DCP
    INDEX 00 52:03:65
    INDEX 01 52:04:65
  TRACK 12 AUDIO
    TITLE "Siren Song"
    PERFORMER "Pia"
    FLAGS DCP
    INDEX 00 56:47:66
    INDEX 01 56:48:66
  TRACK 13 AUDIO
    TITLE "Ipmente"
    PERFORMER "Global Collecrive"
    FLAGS DCP
    INDEX 00 62:52:42
    INDEX 01 62:53:41
  TRACK 14 AUDIO
    TITLE "Lost City"
    PERFORMER "Medwyn Goodall"
    FLAGS DCP
    INDEX 00 66:49:19
    INDEX 01 66:50:19
  TRACK 15 AUDIO
    TITLE "Kiss Of the Sorcerer"
    PERFORMER "Phil Thornton"
    FLAGS DCP
    INDEX 00 73:46:24
    INDEX 01 73:47:24
-
Яндекс.Метрика
Рейтинг@Mail.ru