VA - NOW That's What I Call Music! 88 (2014) [FLAC|Lossless]<Top 40, Pop Compilation>

 

Создавать темы 07-Дек-2014 21:29

-VA - NOW That's What I Call Music! 88 (2014)- Год: 2014
Жанр: Top 40, Pop Compilation, Pop, Pop-Rock, Dance, New Wave, Electronic, Funk, Soul, House, R&B, Soul
Лейбл: NOW Music / Sony Music / Universal Music TV
Номер по каталогу: 0888430739529 / CDNOW88
EAN/UPC: 888430739529
Страна: Великобритания
Продолжительность: 02:35:15
Тип рипа: tracks+.cue
Кодек: FLAC
Битрейт: Lossless
Наличие сканов в содержимом раздачи: да Продолжительноcть: 01:16:45
Треклист:
01. Ella Henderson - Ghost (3:34)
02. Ed Sheeran - Sing (3:53)
03. Sam Smith - Stay With Me (2:52)
04. George Ezra - Budapest (3:21)
05. Mr Probz - Waves (Robin Schulz Remix) (3:26)
06. Ariana Grande feat. Iggy Azalea - Problem (3:13)
07. Rita Ora - I Will Never Let You Down (3:23)
08. Coldplay - A Sky Full Of Stars (Radio Edit) (3:55)
09. Aloe Blacc - The Man (3:30)
10. Michael Jackson - Love Never Felt So Good (3:53)
11. will.i.am & Cody Wise - It's My Birthday (4:12)
12. Iggy Azalea feat. Charli XCX - Fancy (3:16)
13. Chris Brown feat. Lil Wayne & Tyga - Loyal (4:23)
14. Clean Bandit feat. Sharna Bass - Extraordinary (4:14)
15. Jess Glynne - Right Here (3:39)
16. Ella Eyre - If I Go (3:00)
17. MKTO - Classic (2:54)
18. 5 Seconds Of Summer - Don't Stop (2:49)
19. Little Mix - Salute (Single Version) (3:07)
20. Rixton - Me And My Broken Heart (3:13)
21. The Vamps feat. Demi Lovato - Somebody To You (3:01)
22. Idina Menzel - Let It Go (3:45)

Отчёт XLD&#58;

X Lossless Decoder version 20140504 (147.0)
XLD extraction logfile from 2014-07-22 01:37:58 +0100
Various Artists / Now Thats What I Call Music 88 (Disc 1)
Used drive : HL-DT-ST DVDRAM GP30NB40 (revision 1.00)
Media type : Pressed CD
Ripper mode             : XLD Secure Ripper
Disable audio cache     : OK for the drive with a cache less than 1375KiB
Make use of C2 pointers : NO
Read offset correction  : 6
Max retry count         : 100
Gap status              : Analyzed, Appended (except HTOA)
TOC of the extracted CD
     Track |   Start  |  Length  | Start sector | End sector
    ---------------------------------------------------------
        1  | 00:00:00 | 03:34:19 |         0    |    16068
        2  | 03:34:19 | 03:53:10 |     16069    |    33553
        3  | 07:27:29 | 02:52:17 |     33554    |    46470
        4  | 10:19:46 | 03:21:17 |     46471    |    61562
        5  | 13:40:63 | 03:26:65 |     61563    |    77077
        6  | 17:07:53 | 03:13:21 |     77078    |    91573
        7  | 20:20:74 | 03:23:28 |     91574    |   106826
        8  | 23:44:27 | 03:55:36 |    106827    |   124487
        9  | 27:39:63 | 03:30:61 |    124488    |   140298
       10  | 31:10:49 | 03:53:73 |    140299    |   157846
       11  | 35:04:47 | 04:12:10 |    157847    |   176756
       12  | 39:16:57 | 03:16:30 |    176757    |   191486
       13  | 42:33:12 | 04:23:65 |    191487    |   211276
       14  | 46:57:02 | 04:14:67 |    211277    |   230393
       15  | 51:11:69 | 03:39:71 |    230394    |   246889
       16  | 54:51:65 | 03:00:69 |    246890    |   260458
       17  | 57:52:59 | 02:54:47 |    260459    |   273555
       18  | 60:47:31 | 02:49:44 |    273556    |   286274
       19  | 63:37:00 | 03:07:58 |    286275    |   300357
       20  | 66:44:58 | 03:13:27 |    300358    |   314859
       21  | 69:58:10 | 03:01:71 |    314860    |   328505
       22  | 73:00:06 | 03:45:41 |    328506    |   345421
AccurateRip Summary
    Disc not found in AccurateRip DB.
All Tracks
    Album gain               : -9.88 dB
    Peak                     : 1.000000
    Statistics
        Read error                           : 0
        Jitter error (maybe fixed)           : 0
        Retry sector count                   : 0
        Damaged sector count                 : 0
Track 01
    Filename : /Volumes/Macintosh HD/XLD/Various Artists/Now That's What I Call Music! 88/CD1/01 - Ella Henderson - Ghost.flac
    Pre-gap length : 00:02:00
    Track gain               : -10.79 dB
    Peak                     : 1.000000
    CRC32 hash (test run)    : 968B464F
    CRC32 hash               : 968B464F
    CRC32 hash (skip zero)   : 834A3F69
    AccurateRip v1 signature : 0F528593
    AccurateRip v2 signature : 31355FF6
        ->Track not present in AccurateRip database.
    Statistics
        Read error                           : 0
        Jitter error (maybe fixed)           : 0
        Retry sector count                   : 0
        Damaged sector count                 : 0
Track 02
    Filename : /Volumes/Macintosh HD/XLD/Various Artists/Now That's What I Call Music! 88/CD1/02 - Ed Sheeran - Sing.flac
    Track gain               : -11.80 dB
    Peak                     : 0.990356
    CRC32 hash (test run)    : 7FB1068B
    CRC32 hash               : 7FB1068B
    CRC32 hash (skip zero)   : FB101303
    AccurateRip v1 signature : 3B2FA0D3
    AccurateRip v2 signature : 5771A6D0
        ->Track not present in AccurateRip database.
    Statistics
        Read error                           : 0
        Jitter error (maybe fixed)           : 0
        Retry sector count                   : 0
        Damaged sector count                 : 0
Track 03
    Filename : /Volumes/Macintosh HD/XLD/Various Artists/Now That's What I Call Music! 88/CD1/03 - Sam Smith - Stay With Me.flac
    Track gain               : -9.91 dB
    Peak                     : 0.998749
    CRC32 hash (test run)    : 8454C14B
    CRC32 hash               : 8454C14B
    CRC32 hash (skip zero)   : 907484A6
    AccurateRip v1 signature : BA35D5B7
    AccurateRip v2 signature : BAF068A4
        ->Track not present in AccurateRip database.
    Statistics
        Read error                           : 0
        Jitter error (maybe fixed)           : 0
        Retry sector count                   : 0
        Damaged sector count                 : 0
Track 04
    Filename : /Volumes/Macintosh HD/XLD/Various Artists/Now That's What I Call Music! 88/CD1/04 - George Ezra - Budapest.flac
    Track gain               : -7.59 dB
    Peak                     : 0.997284
    CRC32 hash (test run)    : CC6D1747
    CRC32 hash               : CC6D1747
    CRC32 hash (skip zero)   : 1ADA7DBE
    AccurateRip v1 signature : 78498095
    AccurateRip v2 signature : A7B12AD1
        ->Track not present in AccurateRip database.
    Statistics
        Read error                           : 0
        Jitter error (maybe fixed)           : 0
        Retry sector count                   : 0
        Damaged sector count                 : 0
Track 05
    Filename : /Volumes/Macintosh HD/XLD/Various Artists/Now That's What I Call Music! 88/CD1/05 - Mr. Probz - Waves (Robin Schultz Radio Edit).flac
    Track gain               : -6.04 dB
    Peak                     : 0.912445
    CRC32 hash (test run)    : 8F1A18B3
    CRC32 hash               : 8F1A18B3
    CRC32 hash (skip zero)   : 6DC444BE
    AccurateRip v1 signature : A2B99610
    AccurateRip v2 signature : 79A1EE99
        ->Track not present in AccurateRip database.
    Statistics
        Read error                           : 0
        Jitter error (maybe fixed)           : 0
        Retry sector count                   : 0
        Damaged sector count                 : 0
Track 06
    Filename : /Volumes/Macintosh HD/XLD/Various Artists/Now That's What I Call Music! 88/CD1/06 - Ariana Grande feat, Iggy Azalea - Problem.flac
    Track gain               : -8.84 dB
    Peak                     : 0.999969
    CRC32 hash (test run)    : D703285D
    CRC32 hash               : D703285D
    CRC32 hash (skip zero)   : A82F5816
    AccurateRip v1 signature : 26B7036E
    AccurateRip v2 signature : 062683BF
        ->Track not present in AccurateRip database.
    Statistics
        Read error                           : 0
        Jitter error (maybe fixed)           : 0
        Retry sector count                   : 0
        Damaged sector count                 : 0
Track 07
    Filename : /Volumes/Macintosh HD/XLD/Various Artists/Now That's What I Call Music! 88/CD1/07 - RITA ORA - I Will Never Let You Down.flac
    Track gain               : -11.84 dB
    Peak                     : 0.999969
    CRC32 hash (test run)    : 803B5DA5
    CRC32 hash               : 803B5DA5
    CRC32 hash (skip zero)   : EDE40012
    AccurateRip v1 signature : E80D4023
    AccurateRip v2 signature : C0CE964C
        ->Track not present in AccurateRip database.
    Statistics
        Read error                           : 0
        Jitter error (maybe fixed)           : 0
        Retry sector count                   : 0
        Damaged sector count                 : 0
Track 08
    Filename : /Volumes/Macintosh HD/XLD/Various Artists/Now That's What I Call Music! 88/CD1/08 - Coldplay - A Sky Full Of Stars.flac
    Track gain               : -8.57 dB
    Peak                     : 1.000000
    CRC32 hash (test run)    : BFACCA8B
    CRC32 hash               : BFACCA8B
    CRC32 hash (skip zero)   : 1802C01F
    AccurateRip v1 signature : AC24A809
    AccurateRip v2 signature : F2187607
        ->Track not present in AccurateRip database.
    Statistics
        Read error                           : 0
        Jitter error (maybe fixed)           : 0
        Retry sector count                   : 0
        Damaged sector count                 : 0
Track 09
    Filename : /Volumes/Macintosh HD/XLD/Various Artists/Now That's What I Call Music! 88/CD1/09 - Aloe Blacc - The Man.flac
    Track gain               : -8.75 dB
    Peak                     : 0.999756
    CRC32 hash (test run)    : 99DEF17C
    CRC32 hash               : 99DEF17C
    CRC32 hash (skip zero)   : 7833872F
    AccurateRip v1 signature : 87826AB4
    AccurateRip v2 signature : AC545FE1
        ->Track not present in AccurateRip database.
    Statistics
        Read error                           : 0
        Jitter error (maybe fixed)           : 0
        Retry sector count                   : 0
        Damaged sector count                 : 0
Track 10
    Filename : /Volumes/Macintosh HD/XLD/Various Artists/Now That's What I Call Music! 88/CD1/10 - Michael Jackson - Love Never Felt So Good.flac
    Track gain               : -9.59 dB
    Peak                     : 0.988739
    CRC32 hash (test run)    : 681215A7
    CRC32 hash               : 681215A7
    CRC32 hash (skip zero)   : 54A98975
    AccurateRip v1 signature : 2B789F0A
    AccurateRip v2 signature : 7844B92E
        ->Track not present in AccurateRip database.
    Statistics
        Read error                           : 0
        Jitter error (maybe fixed)           : 0
        Retry sector count                   : 0
        Damaged sector count                 : 0
Track 11
    Filename : /Volumes/Macintosh HD/XLD/Various Artists/Now That's What I Call Music! 88/CD1/11 - will.i.am feat. Cody Wise - It's My Birthday.flac
    Track gain               : -9.09 dB
    Peak                     : 0.999969
    CRC32 hash (test run)    : 23FE4C11
    CRC32 hash               : 23FE4C11
    CRC32 hash (skip zero)   : 4A054165
    AccurateRip v1 signature : EC119A44
    AccurateRip v2 signature : 1631C881
        ->Track not present in AccurateRip database.
    Statistics
        Read error                           : 0
        Jitter error (maybe fixed)           : 0
        Retry sector count                   : 0
        Damaged sector count                 : 0
Track 12
    Filename : /Volumes/Macintosh HD/XLD/Various Artists/Now That's What I Call Music! 88/CD1/12 - Iggy Azalea feat. Charli XCX - Fancy.flac
    Track gain               : -10.78 dB
    Peak                     : 0.989197
    CRC32 hash (test run)    : A2D37043
    CRC32 hash               : A2D37043
    CRC32 hash (skip zero)   : FFBD4C01
    AccurateRip v1 signature : 9A4E128C
    AccurateRip v2 signature : E981B836
        ->Track not present in AccurateRip database.
    Statistics
        Read error                           : 0
        Jitter error (maybe fixed)           : 0
        Retry sector count                   : 0
        Damaged sector count                 : 0
Track 13
    Filename : /Volumes/Macintosh HD/XLD/Various Artists/Now That's What I Call Music! 88/CD1/13 - Chris Brown feat. Lil Wayne & Tyga - Loyal.flac
    Track gain               : -8.49 dB
    Peak                     : 1.000000
    CRC32 hash (test run)    : 28FC992E
    CRC32 hash               : 28FC992E
    CRC32 hash (skip zero)   : D3BEA904
    AccurateRip v1 signature : AF6786D3
    AccurateRip v2 signature : 8E655829
        ->Track not present in AccurateRip database.
    Statistics
        Read error                           : 0
        Jitter error (maybe fixed)           : 0
        Retry sector count                   : 0
        Damaged sector count                 : 0
Track 14
    Filename : /Volumes/Macintosh HD/XLD/Various Artists/Now That's What I Call Music! 88/CD1/14 - Clean Bandit feat. Sharna Bass - Extraordinary.flac
    Track gain               : -8.69 dB
    Peak                     : 0.988556
    CRC32 hash (test run)    : F1AABD15
    CRC32 hash               : F1AABD15
    CRC32 hash (skip zero)   : 812160B8
    AccurateRip v1 signature : 6BFF8B05
    AccurateRip v2 signature : FCF847DE
        ->Track not present in AccurateRip database.
    Statistics
        Read error                           : 0
        Jitter error (maybe fixed)           : 0
        Retry sector count                   : 0
        Damaged sector count                 : 0
Track 15
    Filename : /Volumes/Macintosh HD/XLD/Various Artists/Now That's What I Call Music! 88/CD1/15 - Jess Glynne - Right Here.flac
    Track gain               : -8.66 dB
    Peak                     : 0.988556
    CRC32 hash (test run)    : 6D45E616
    CRC32 hash               : 6D45E616
    CRC32 hash (skip zero)   : 71C6062D
    AccurateRip v1 signature : AA42879C
    AccurateRip v2 signature : 55D14CC0
        ->Track not present in AccurateRip database.
    Statistics
        Read error                           : 0
        Jitter error (maybe fixed)           : 0
        Retry sector count                   : 0
        Damaged sector count                 : 0
Track 16
    Filename : /Volumes/Macintosh HD/XLD/Various Artists/Now That's What I Call Music! 88/CD1/16 - Ella Eyre - If I Go.flac
    Track gain               : -10.60 dB
    Peak                     : 0.990356
    CRC32 hash (test run)    : 5CA66FE1
    CRC32 hash               : 5CA66FE1
    CRC32 hash (skip zero)   : 6956D0A9
    AccurateRip v1 signature : A0F289B7
    AccurateRip v2 signature : CF27DA0B
        ->Track not present in AccurateRip database.
    Statistics
        Read error                           : 0
        Jitter error (maybe fixed)           : 0
        Retry sector count                   : 0
        Damaged sector count                 : 0
Track 17
    Filename : /Volumes/Macintosh HD/XLD/Various Artists/Now That's What I Call Music! 88/CD1/17 - MKTO - Classic.flac
    Track gain               : -9.08 dB
    Peak                     : 0.999176
    CRC32 hash (test run)    : 65A8C9C1
    CRC32 hash               : 65A8C9C1
    CRC32 hash (skip zero)   : 3F9B96B4
    AccurateRip v1 signature : 3460996F
    AccurateRip v2 signature : B80150FD
        ->Track not present in AccurateRip database.
    Statistics
        Read error                           : 0
        Jitter error (maybe fixed)           : 0
        Retry sector count                   : 0
        Damaged sector count                 : 0
Track 18
    Filename : /Volumes/Macintosh HD/XLD/Various Artists/Now That's What I Call Music! 88/CD1/18 - 5 Seconds Of Summer - Don't Stop.flac
    Track gain               : -11.17 dB
    Peak                     : 1.000000
    CRC32 hash (test run)    : F8D95839
    CRC32 hash               : F8D95839
    CRC32 hash (skip zero)   : 435E8860
    AccurateRip v1 signature : DBBA7081
    AccurateRip v2 signature : 58152DA8
        ->Track not present in AccurateRip database.
    Statistics
        Read error                           : 0
        Jitter error (maybe fixed)           : 0
        Retry sector count                   : 0
        Damaged sector count                 : 0
Track 19
    Filename : /Volumes/Macintosh HD/XLD/Various Artists/Now That's What I Call Music! 88/CD1/19 - Little Mix - Salute.flac
    Track gain               : -9.57 dB
    Peak                     : 0.998840
    CRC32 hash (test run)    : F58E20C6
    CRC32 hash               : F58E20C6
    CRC32 hash (skip zero)   : C122AE73
    AccurateRip v1 signature : A2A349CC
    AccurateRip v2 signature : 4FA8140D
        ->Track not present in AccurateRip database.
    Statistics
        Read error                           : 0
        Jitter error (maybe fixed)           : 0
        Retry sector count                   : 0
        Damaged sector count                 : 0
Track 20
    Filename : /Volumes/Macintosh HD/XLD/Various Artists/Now That's What I Call Music! 88/CD1/20 - Rixton - Me And My Broken Heart.flac
    Track gain               : -9.55 dB
    Peak                     : 0.999969
    CRC32 hash (test run)    : 78D68EB7
    CRC32 hash               : 78D68EB7
    CRC32 hash (skip zero)   : 9951D3CC
    AccurateRip v1 signature : F5242006
    AccurateRip v2 signature : 1AD53A8B
        ->Track not present in AccurateRip database.
    Statistics
        Read error                           : 0
        Jitter error (maybe fixed)           : 0
        Retry sector count                   : 0
        Damaged sector count                 : 0
Track 21
    Filename : /Volumes/Macintosh HD/XLD/Various Artists/Now That's What I Call Music! 88/CD1/21 - The Vamps feat. Demi Lovato - Somebody To You.flac
    Track gain               : -11.50 dB
    Peak                     : 0.998840
    CRC32 hash (test run)    : 7CC65BB6
    CRC32 hash               : 7CC65BB6
    CRC32 hash (skip zero)   : D90B9F44
    AccurateRip v1 signature : 760475C8
    AccurateRip v2 signature : 2C370108
        ->Track not present in AccurateRip database.
    Statistics
        Read error                           : 0
        Jitter error (maybe fixed)           : 0
        Retry sector count                   : 0
        Damaged sector count                 : 0
Track 22
    Filename : /Volumes/Macintosh HD/XLD/Various Artists/Now That's What I Call Music! 88/CD1/22 - Idina Menzel - Let It Go.flac
    Track gain               : -7.02 dB
    Peak                     : 0.999786
    CRC32 hash (test run)    : CD82ABC3
    CRC32 hash               : CD82ABC3
    CRC32 hash (skip zero)   : 60C0D8C6
    AccurateRip v1 signature : 5FF45B6C
    AccurateRip v2 signature : 8BD3C169
        ->Track not present in AccurateRip database.
    Statistics
        Read error                           : 0
        Jitter error (maybe fixed)           : 0
        Retry sector count                   : 0
        Damaged sector count                 : 0
No errors occurred
End of status report

Отчёт auCDtect Task manager&#58;

PERFORMER: auCDtect Task Manager, ver. 1.6.0 RC1 build 1.6.0.1
Copyright (c) 2008-2010 y-soft. All rights reserved
http://y-soft.org
ANALYZER: auCDtect: CD records authenticity detector, version 0.8.2
Copyright (c) 2004 Oleg Berngardt. All rights reserved.
Copyright (c) 2004 Alexander Djourik. All rights reserved.
FILE: 22 - Idina Menzel - Let It Go.flac
  Size: 23471125 Hash: 586B614AA21C279A3DD002DD2FC01730 Accuracy: -m0
  Conclusion: CDDA 100%
  Signature: B6CB1762CBD5CB47F65A6A34C086A3269761898F
FILE: 21 - The Vamps feat. Demi Lovato - Somebody To You.flac
  Size: 23993437 Hash: D3A1E11882687DFCBEEF000D4A51F0B5 Accuracy: -m0
  Conclusion: CDDA 100%
  Signature: E855D41D4FAC66EC00864326AC5ECDF83B5DA856
FILE: 20 - Rixton - Me And My Broken Heart.flac
  Size: 25082098 Hash: 4B444C37D15D1DD0696B37E57FDD6E30 Accuracy: -m0
  Conclusion: CDDA 100%
  Signature: B050808DBEFD37182D15416F0DCEF4B47DB432E7
FILE: 19 - Little Mix - Salute.flac
  Size: 24644484 Hash: 5E6422AE5491FE2B7B98559C3A3E5DE7 Accuracy: -m0
  Conclusion: CDDA 100%
  Signature: 2430B4156473FD292B72FB40B3F7AD5C4C4790EE
FILE: 18 - 5 Seconds Of Summer - Don't Stop.flac
  Size: 22891326 Hash: 27D184A51F09B7AEC8260ACCECE92FCC Accuracy: -m0
  Conclusion: CDDA 100%
  Signature: BF63A3675F4CC511F1340FE0C78DCD9AB343C3FA
FILE: 17 - MKTO - Classic.flac
  Size: 21273724 Hash: 3F010C16E194FBC5AB6F0BCDBEDD0974 Accuracy: -m0
  Conclusion: CDDA 100%
  Signature: AB66FFFE2EF9F3983293015F114C38538CE3DACA
FILE: 16 - Ella Eyre - If I Go.flac
  Size: 22460151 Hash: B4D8126B78CD2A6C2E4C9E54EC3AD076 Accuracy: -m0
  Conclusion: CDDA 100%
  Signature: FC04ED9F224BED00A55BBD85D13A8710B470726F
FILE: 15 - Jess Glynne - Right Here.flac
  Size: 27930535 Hash: 4CBEA155D0553079E7E28AF8CBA816CE Accuracy: -m0
  Conclusion: CDDA 100%
  Signature: 23DE651F318EE943FC460E97297F8794D511CEB9
FILE: 14 - Clean Bandit feat. Sharna Bass - Extraordinary.flac
  Size: 28432965 Hash: 22645335BED1D35F0B02E2CEBA8E15C0 Accuracy: -m0
  Conclusion: CDDA 99%
  Signature: 9510BDEF834165DFD7D8FEACC8696821C942046D
FILE: 13 - Chris Brown feat. Lil Wayne & Tyga - Loyal.flac
  Size: 31206677 Hash: 6FCB323547168E94BDCAC6CA83578E9F Accuracy: -m0
  Conclusion: MPEG 99%
  Signature: D44E135527B1FB2BFD86F06A97E8808058C66CF4
FILE: 12 - Iggy Azalea feat. Charli XCX - Fancy.flac
  Size: 23403343 Hash: 033ACFF134C00823FE1A513484B0EFD4 Accuracy: -m0
  Conclusion: CDDA 100%
  Signature: 7AE2B8856349F3ABE772EA9BF6B54DE06570DFEB
FILE: 11 - will.i.am feat. Cody Wise - It's My Birthday.flac
  Size: 32607520 Hash: FDCCD20513D88A120605E747C2500AC2 Accuracy: -m0
  Conclusion: CDDA 100%
  Signature: 5BAEFC667633FB978A0D9481B63BA4BC429FD33F
FILE: 10 - Michael Jackson - Love Never Felt So Good.flac
  Size: 31115669 Hash: CD32CC05A4AC423E7E38A006770F1E7B Accuracy: -m0
  Conclusion: CDDA 100%
  Signature: D3608A5B82B2DFB4A8FB54B7EBABCAC5DE3C65E1
FILE: 09 - Aloe Blacc - The Man.flac
  Size: 26148480 Hash: D3A91981EA6B2E93E27D8BCADF6CCDED Accuracy: -m0
  Conclusion: CDDA 100%
  Signature: 7EDB5065D624F0EC8A059C8131D9E0EE3CEF4AC7
FILE: 08 - Coldplay - A Sky Full Of Stars.flac
  Size: 28425519 Hash: CE086BBD9DBE00DEE2043AE933ABC2A3 Accuracy: -m0
  Conclusion: CDDA 94%
  Signature: 1655D95DAF1B49A45A6E81DAC66C6B3C6FFFE285
FILE: 07 - RITA ORA - I Will Never Let You Down.flac
  Size: 25283023 Hash: AF88BA58506DE3C135EE1F8912A629ED Accuracy: -m0
  Conclusion: CDDA 100%
  Signature: 1A36696C4D082AF3CAC4EBF585E352ACF1817914
FILE: 06 - Ariana Grande feat, Iggy Azalea - Problem.flac
  Size: 24528354 Hash: B5FC3255CBA5A62CA0594988F3DF845E Accuracy: -m0
  Conclusion: CDDA 100%
  Signature: 1A79145B83DF65EBE58AF7E6FC6421E099BF3899
FILE: 05 - Mr. Probz - Waves (Robin Schultz Radio Edit).flac
  Size: 21453165 Hash: 79746C5C2FEED23DC01C985596D1285E Accuracy: -m0
  Conclusion: CDDA 99%
  Signature: CD9A07D5DC3366E1EC2DABDF3B7F83AF8E399D1F
FILE: 04 - George Ezra - Budapest.flac
  Size: 22177462 Hash: B6C1842D395DEDB43956DC0F279E736D Accuracy: -m0
  Conclusion: CDDA 100%
  Signature: 73341DD26A28B079FDB7B39FE437E6AA06BBF8EC
FILE: 03 - Sam Smith - Stay With Me.flac
  Size: 17999922 Hash: 972F4ABB241F051BB2723BE1D03198D3 Accuracy: -m0
  Conclusion: CDDA 100%
  Signature: 3D8A389FFC5286174CFFA296B447C0043343F8C5
FILE: 02 - Ed Sheeran - Sing.flac
  Size: 30067504 Hash: AFB873C216481ED4B0390237329CC7E2 Accuracy: -m0
  Conclusion: CDDA 100%
  Signature: 03D661202765F24D6C3CC009BD1F2C4712199394
FILE: 01 - Ella Henderson - Ghost.flac
  Size: 28188273 Hash: 2F84A7C14AD02A8C2ACEB44D7024BB03 Accuracy: -m0
  Conclusion: CDDA 100%
  Signature: CA52370FC2196A9F3D7BF85B4030F37AD78C8877
Продолжительноcть: 01:18:30
Треклиcт:
01. Clean Bandit feat. Jess Glynne - Rather Be (3:47)
02. Kiesza - Hideaway (4:12)
03. Oliver Heldens x Becky Hill - Gecko (Overdrive) (2:45)
04. Sigma - Nobody To Love (Radio Edit) (3:09)
05. Calvin Harris - Summer (3:39)
06. Secondcity - I Wanna Feel (Edit) (2:40)
07. Klingande - Jubel (UK Radio Edit) (2:27)
08. FAUL & Wad Ad vs. Pnau - Changes (Radio Mix) (3:21)
09. Fuse ODG feat. Sean Paul - Dangerous Love (3:54)
10. DJ Fresh vs. TC feat. Little Nikki - Make U Bounce (Radio Edit) (2:43)
11. Shift K3Y - Touch (2:58)
12. MK feat. Alana - Always (Route 94 Edit) (2:22)
13. Tiesto feat. Matthew Koma - Wasted (3:06)
14. John Martin - Anywhere For You (3:31)
15. Cash Cash feat. Bebe Rexha - Take Me Home (Radio Edit) (3:24)
16. Matrix & Futurebound feat. Tanya Lacey - Don't Look Back (4:00)
17. Jason Derulo feat. Snoop Dogg - Wiggle (3:11)
18. DJ Cassidy feat. Robin Thicke & Jessie J - Calling All Hearts (4:45)
19. Neon Jungle - Welcome To The Jungle (3:32)
20. Sia - Chandelier (3:33)
21. The Vamps - Last Night (3:06)
22. Tove Lo feat. Hippie Sabotage - Stay High (Habits Remix) (4:17)
23. Paloma Faith - Only Love Can Hurt Like This (3:53)

Отчёт XLD&#58;

X Lossless Decoder version 20140504 (147.0)
XLD extraction logfile from 2014-07-22 01:10:11 +0100
Various Artists / Now Thats What I Call Music 88 (Disc 2)
Used drive : HL-DT-ST DVDRAM GP30NB40 (revision 1.00)
Media type : Pressed CD
Ripper mode             : XLD Secure Ripper
Disable audio cache     : OK for the drive with a cache less than 1375KiB
Make use of C2 pointers : NO
Read offset correction  : 6
Max retry count         : 100
Gap status              : Analyzed, Appended (except HTOA)
TOC of the extracted CD
     Track |   Start  |  Length  | Start sector | End sector
    ---------------------------------------------------------
        1  | 00:00:00 | 03:47:13 |         0    |    17037
        2  | 03:47:13 | 04:12:35 |     17038    |    35972
        3  | 07:59:48 | 02:45:48 |     35973    |    48395
        4  | 10:45:21 | 03:09:56 |     48396    |    62626
        5  | 13:55:02 | 03:39:50 |     62627    |    79101
        6  | 17:34:52 | 02:40:33 |     79102    |    91134
        7  | 20:15:10 | 02:27:24 |     91135    |   102183
        8  | 22:42:34 | 03:21:17 |    102184    |   117275
        9  | 26:03:51 | 03:54:60 |    117276    |   134885
       10  | 29:58:36 | 02:43:24 |    134886    |   147134
       11  | 32:41:60 | 02:58:72 |    147135    |   160556
       12  | 35:40:57 | 02:22:64 |    160557    |   171270
       13  | 38:03:46 | 03:06:71 |    171271    |   185291
       14  | 41:10:42 | 03:31:65 |    185292    |   201181
       15  | 44:42:32 | 03:24:73 |    201182    |   216554
       16  | 48:07:30 | 04:00:39 |    216555    |   234593
       17  | 52:07:69 | 03:11:41 |    234594    |   248959
       18  | 55:19:35 | 04:45:41 |    248960    |   270375
       19  | 60:05:01 | 03:32:61 |    270376    |   286336
       20  | 63:37:62 | 03:33:64 |    286337    |   302375
       21  | 67:11:51 | 03:06:32 |    302376    |   316357
       22  | 70:18:08 | 04:17:07 |    316358    |   335639
       23  | 74:35:15 | 03:53:45 |    335640    |   353159
AccurateRip Summary
    Disc not found in AccurateRip DB.
All Tracks
    Album gain               : -10.69 dB
    Peak                     : 1.000000
    Statistics
        Read error                           : 0
        Jitter error (maybe fixed)           : 0
        Retry sector count                   : 0
        Damaged sector count                 : 0
Track 01
    Filename : /Volumes/Macintosh HD/XLD/Various Artists/Now That's What I Call Music! 88/CD2/01 - Clean Bandit feat. Jess Glynne - Rather Be.flac
    Pre-gap length : 00:02:00
    Track gain               : -7.88 dB
    Peak                     : 0.988556
    CRC32 hash (test run)    : FE5F7034
    CRC32 hash               : FE5F7034
    CRC32 hash (skip zero)   : 2A4FDBFD
    AccurateRip v1 signature : 8ED5D173
    AccurateRip v2 signature : 106F22DB
        ->Track not present in AccurateRip database.
    Statistics
        Read error                           : 0
        Jitter error (maybe fixed)           : 0
        Retry sector count                   : 0
        Damaged sector count                 : 0
Track 02
    Filename : /Volumes/Macintosh HD/XLD/Various Artists/Now That's What I Call Music! 88/CD2/02 - Kiesza - Hideaway.flac
    Track gain               : -7.79 dB
    Peak                     : 1.000000
    CRC32 hash (test run)    : 9346BAC5
    CRC32 hash               : 9346BAC5
    CRC32 hash (skip zero)   : 49224FAF
    AccurateRip v1 signature : 1EA6F291
    AccurateRip v2 signature : 3EAA55FC
        ->Track not present in AccurateRip database.
    Statistics
        Read error                           : 0
        Jitter error (maybe fixed)           : 0
        Retry sector count                   : 0
        Damaged sector count                 : 0
Track 03
    Filename : /Volumes/Macintosh HD/XLD/Various Artists/Now That's What I Call Music! 88/CD2/03 - Oliver Heldens x Becky Hill - Gecko (Overdrive).flac
    Track gain               : -8.52 dB
    Peak                     : 0.988556
    CRC32 hash (test run)    : DC7C77C5
    CRC32 hash               : DC7C77C5
    CRC32 hash (skip zero)   : 044A8A2F
    AccurateRip v1 signature : 1B5A3BC4
    AccurateRip v2 signature : 7D5E9AEF
        ->Track not present in AccurateRip database.
    Statistics
        Read error                           : 0
        Jitter error (maybe fixed)           : 0
        Retry sector count                   : 0
        Damaged sector count                 : 0
Track 04
    Filename : /Volumes/Macintosh HD/XLD/Various Artists/Now That's What I Call Music! 88/CD2/04 - Sigma - Nobody To Love.flac
    Track gain               : -10.01 dB
    Peak                     : 1.000000
    CRC32 hash (test run)    : 4D846B8E
    CRC32 hash               : 4D846B8E
    CRC32 hash (skip zero)   : 066B019D
    AccurateRip v1 signature : 9397328E
    AccurateRip v2 signature : C5DD7B7E
        ->Track not present in AccurateRip database.
    Statistics
        Read error                           : 0
        Jitter error (maybe fixed)           : 0
        Retry sector count                   : 0
        Damaged sector count                 : 0
Track 05
    Filename : /Volumes/Macintosh HD/XLD/Various Artists/Now That's What I Call Music! 88/CD2/05 - Calvin Harris - Summer.flac
    Track gain               : -10.60 dB
    Peak                     : 1.000000
    CRC32 hash (test run)    : 3D2B67FA
    CRC32 hash               : 3D2B67FA
    CRC32 hash (skip zero)   : 2DF8F26F
    AccurateRip v1 signature : 17714387
    AccurateRip v2 signature : 324870C6
        ->Track not present in AccurateRip database.
    Statistics
        Read error                           : 0
        Jitter error (maybe fixed)           : 0
        Retry sector count                   : 0
        Damaged sector count                 : 0
Track 06
    Filename : /Volumes/Macintosh HD/XLD/Various Artists/Now That's What I Call Music! 88/CD2/06 - Secondcity - I Wanna Feel.flac
    Track gain               : -7.44 dB
    Peak                     : 0.988586
    CRC32 hash (test run)    : 68507244
    CRC32 hash               : 68507244
    CRC32 hash (skip zero)   : 36FCFB4C
    AccurateRip v1 signature : 931B0110
    AccurateRip v2 signature : E01684EA
        ->Track not present in AccurateRip database.
    Statistics
        Read error                           : 0
        Jitter error (maybe fixed)           : 0
        Retry sector count                   : 0
        Damaged sector count                 : 0
Track 07
    Filename : /Volumes/Macintosh HD/XLD/Various Artists/Now That's What I Call Music! 88/CD2/07 - Klingande - Jubel.flac
    Track gain               : -8.22 dB
    Peak                     : 1.000000
    CRC32 hash (test run)    : 7C23F33E
    CRC32 hash               : 7C23F33E
    CRC32 hash (skip zero)   : 9FEFB7D1
    AccurateRip v1 signature : 83401952
    AccurateRip v2 signature : 50AD182C
        ->Track not present in AccurateRip database.
    Statistics
        Read error                           : 0
        Jitter error (maybe fixed)           : 0
        Retry sector count                   : 0
        Damaged sector count                 : 0
Track 08
    Filename : /Volumes/Macintosh HD/XLD/Various Artists/Now That's What I Call Music! 88/CD2/08 - Faul & Wad Ad vs. Pnau - Changes.flac
    Track gain               : -7.94 dB
    Peak                     : 0.990540
    CRC32 hash (test run)    : 97427FB8
    CRC32 hash               : 97427FB8
    CRC32 hash (skip zero)   : 31577632
    AccurateRip v1 signature : 8E1FEC94
    AccurateRip v2 signature : 608C1176
        ->Track not present in AccurateRip database.
    Statistics
        Read error                           : 0
        Jitter error (maybe fixed)           : 0
        Retry sector count                   : 0
        Damaged sector count                 : 0
Track 09
    Filename : /Volumes/Macintosh HD/XLD/Various Artists/Now That's What I Call Music! 88/CD2/09 - Fuse ODG feat. Sean Paul - Dangerous Love.flac
    Track gain               : -9.96 dB
    Peak                     : 0.988373
    CRC32 hash (test run)    : 4746B7BD
    CRC32 hash               : 4746B7BD
    CRC32 hash (skip zero)   : 41D27218
    AccurateRip v1 signature : 7DE550B4
    AccurateRip v2 signature : FCDCFBB3
        ->Track not present in AccurateRip database.
    Statistics
        Read error                           : 0
        Jitter error (maybe fixed)           : 0
        Retry sector count                   : 0
        Damaged sector count                 : 0
Track 10
    Filename : /Volumes/Macintosh HD/XLD/Various Artists/Now That's What I Call Music! 88/CD2/10 - DJ Fresh vs. TC feat. Little Nikki - Make You Bounce.flac
    Track gain               : -10.90 dB
    Peak                     : 1.000000
    CRC32 hash (test run)    : A567F739
    CRC32 hash               : A567F739
    CRC32 hash (skip zero)   : 861CB861
    AccurateRip v1 signature : BC8CE74D
    AccurateRip v2 signature : 1424B205
        ->Track not present in AccurateRip database.
    Statistics
        Read error                           : 0
        Jitter error (maybe fixed)           : 0
        Retry sector count                   : 0
        Damaged sector count                 : 0
Track 11
    Filename : /Volumes/Macintosh HD/XLD/Various Artists/Now That's What I Call Music! 88/CD2/11 - Shift K3Y - Touch.flac
    Track gain               : -9.21 dB
    Peak                     : 1.000000
    CRC32 hash (test run)    : 0973471F
    CRC32 hash               : 0973471F
    CRC32 hash (skip zero)   : FB29569D
    AccurateRip v1 signature : 3DDB32FE
    AccurateRip v2 signature : 2FD050A8
        ->Track not present in AccurateRip database.
    Statistics
        Read error                           : 0
        Jitter error (maybe fixed)           : 0
        Retry sector count                   : 0
        Damaged sector count                 : 0
Track 12
    Filename : /Volumes/Macintosh HD/XLD/Various Artists/Now That's What I Call Music! 88/CD2/12 - MK feat. Alana - Always (Route 94 edit).flac
    Track gain               : -6.81 dB
    Peak                     : 0.988586
    CRC32 hash (test run)    : F7DA7DAF
    CRC32 hash               : F7DA7DAF
    CRC32 hash (skip zero)   : 6E152EDC
    AccurateRip v1 signature : 1F25ED4E
    AccurateRip v2 signature : 06C5BE81
        ->Track not present in AccurateRip database.
    Statistics
        Read error                           : 0
        Jitter error (maybe fixed)           : 0
        Retry sector count                   : 0
        Damaged sector count                 : 0
Track 13
    Filename : /Volumes/Macintosh HD/XLD/Various Artists/Now That's What I Call Music! 88/CD2/13 - Tiesto feat. Matthew Koma - Wasted.flac
    Track gain               : -8.87 dB
    Peak                     : 0.999969
    CRC32 hash (test run)    : 7DF09301
    CRC32 hash               : 7DF09301
    CRC32 hash (skip zero)   : D975A58E
    AccurateRip v1 signature : 0AE077D5
    AccurateRip v2 signature : 544732A0
        ->Track not present in AccurateRip database.
    Statistics
        Read error                           : 0
        Jitter error (maybe fixed)           : 0
        Retry sector count                   : 0
        Damaged sector count                 : 0
Track 14
    Filename : /Volumes/Macintosh HD/XLD/Various Artists/Now That's What I Call Music! 88/CD2/14 - John Martin - Anywhere For You.flac
    Track gain               : -10.87 dB
    Peak                     : 0.988556
    CRC32 hash (test run)    : D96ABAAD
    CRC32 hash               : D96ABAAD
    CRC32 hash (skip zero)   : 121C3D86
    AccurateRip v1 signature : CB01A733
    AccurateRip v2 signature : 57FDA2FE
        ->Track not present in AccurateRip database.
    Statistics
        Read error                           : 0
        Jitter error (maybe fixed)           : 0
        Retry sector count                   : 0
        Damaged sector count                 : 0
Track 15
    Filename : /Volumes/Macintosh HD/XLD/Various Artists/Now That's What I Call Music! 88/CD2/15 - Cash Cash feat. Bebe Rexha - Take Me Home.flac
    Track gain               : -12.37 dB
    Peak                     : 0.983734
    CRC32 hash (test run)    : 390B1B13
    CRC32 hash               : 390B1B13
    CRC32 hash (skip zero)   : A8AFAEE8
    AccurateRip v1 signature : F8B92083
    AccurateRip v2 signature : A671BE4A
        ->Track not present in AccurateRip database.
    Statistics
        Read error                           : 0
        Jitter error (maybe fixed)           : 0
        Retry sector count                   : 0
        Damaged sector count                 : 0
Track 16
    Filename : /Volumes/Macintosh HD/XLD/Various Artists/Now That's What I Call Music! 88/CD2/16 - Matrix & Futurebound feat. Tanya Lacey - Don't Look Back.flac
    Track gain               : -12.27 dB
    Peak                     : 1.000000
    CRC32 hash (test run)    : 2885BF8A
    CRC32 hash               : 2885BF8A
    CRC32 hash (skip zero)   : 8A4DB3D4
    AccurateRip v1 signature : 59E1127F
    AccurateRip v2 signature : 151A30C1
        ->Track not present in AccurateRip database.
    Statistics
        Read error                           : 0
        Jitter error (maybe fixed)           : 0
        Retry sector count                   : 0
        Damaged sector count                 : 0
Track 17
    Filename : /Volumes/Macintosh HD/XLD/Various Artists/Now That's What I Call Music! 88/CD2/17 - Jason Derulo feat. Snoop Dogg - Wiggle.flac
    Track gain               : -7.75 dB
    Peak                     : 0.999054
    CRC32 hash (test run)    : 2ACDF60C
    CRC32 hash               : 2ACDF60C
    CRC32 hash (skip zero)   : AF793FE1
    AccurateRip v1 signature : D932FFBE
    AccurateRip v2 signature : 25C6BA54
        ->Track not present in AccurateRip database.
    Statistics
        Read error                           : 0
        Jitter error (maybe fixed)           : 0
        Retry sector count                   : 0
        Damaged sector count                 : 0
Track 18
    Filename : /Volumes/Macintosh HD/XLD/Various Artists/Now That's What I Call Music! 88/CD2/18 - DJ Cassidy feat. Robin Thicke & Jessie J - Calling All Hearts.flac
    Track gain               : -11.30 dB
    Peak                     : 0.999969
    CRC32 hash (test run)    : 8451A18E
    CRC32 hash               : 8451A18E
    CRC32 hash (skip zero)   : 9666BC67
    AccurateRip v1 signature : 6DCFAF42
    AccurateRip v2 signature : AD8A5527
        ->Track not present in AccurateRip database.
    Statistics
        Read error                           : 0
        Jitter error (maybe fixed)           : 0
        Retry sector count                   : 0
        Damaged sector count                 : 0
Track 19
    Filename : /Volumes/Macintosh HD/XLD/Various Artists/Now That's What I Call Music! 88/CD2/19 - Neon Jungle - Welcome To The Jungle.flac
    Track gain               : -10.54 dB
    Peak                     : 1.000000
    CRC32 hash (test run)    : 47C3848D
    CRC32 hash               : 47C3848D
    CRC32 hash (skip zero)   : 727D82E0
    AccurateRip v1 signature : D3378630
    AccurateRip v2 signature : 06B04581
        ->Track not present in AccurateRip database.
    Statistics
        Read error                           : 0
        Jitter error (maybe fixed)           : 0
        Retry sector count                   : 0
        Damaged sector count                 : 0
Track 20
    Filename : /Volumes/Macintosh HD/XLD/Various Artists/Now That's What I Call Music! 88/CD2/20 - Sia - Chandelier.flac
    Track gain               : -11.38 dB
    Peak                     : 1.000000
    CRC32 hash (test run)    : 852FEAEA
    CRC32 hash               : 852FEAEA
    CRC32 hash (skip zero)   : FF277DD1
    AccurateRip v1 signature : DDA2996B
    AccurateRip v2 signature : 05D7D289
        ->Track not present in AccurateRip database.
    Statistics
        Read error                           : 0
        Jitter error (maybe fixed)           : 0
        Retry sector count                   : 0
        Damaged sector count                 : 0
Track 21
    Filename : /Volumes/Macintosh HD/XLD/Various Artists/Now That's What I Call Music! 88/CD2/21 - The Vamps  - Last Night.flac
    Track gain               : -7.78 dB
    Peak                     : 0.998901
    CRC32 hash (test run)    : CDEE3E14
    CRC32 hash               : CDEE3E14
    CRC32 hash (skip zero)   : 6111549B
    AccurateRip v1 signature : C9B844EE
    AccurateRip v2 signature : 5F09CC8D
        ->Track not present in AccurateRip database.
    Statistics
        Read error                           : 0
        Jitter error (maybe fixed)           : 0
        Retry sector count                   : 0
        Damaged sector count                 : 0
Track 22
    Filename : /Volumes/Macintosh HD/XLD/Various Artists/Now That's What I Call Music! 88/CD2/22 - Tove Lo feat. Hippie Sabotage - Stay High (Habits Remix).flac
    Track gain               : -7.01 dB
    Peak                     : 0.999969
    CRC32 hash (test run)    : B3E41E63
    CRC32 hash               : B3E41E63
    CRC32 hash (skip zero)   : 7F53F625
    AccurateRip v1 signature : C50DE2BA
    AccurateRip v2 signature : 58BE4FD2
        ->Track not present in AccurateRip database.
    Statistics
        Read error                           : 0
        Jitter error (maybe fixed)           : 0
        Retry sector count                   : 0
        Damaged sector count                 : 0
Track 23
    Filename : /Volumes/Macintosh HD/XLD/Various Artists/Now That's What I Call Music! 88/CD2/23 - Paloma Faith - Only Love Can Hurt Like This.flac
    Track gain               : -10.06 dB
    Peak                     : 0.941650
    CRC32 hash (test run)    : 254BC4ED
    CRC32 hash               : 254BC4ED
    CRC32 hash (skip zero)   : 67492724
    AccurateRip v1 signature : 769301CF
    AccurateRip v2 signature : 18624E2A
        ->Track not present in AccurateRip database.
    Statistics
        Read error                           : 0
        Jitter error (maybe fixed)           : 0
        Retry sector count                   : 0
        Damaged sector count                 : 0
No errors occurred
End of status report

Отчёт auCDtect Task manager&#58;

PERFORMER: auCDtect Task Manager, ver. 1.6.0 RC1 build 1.6.0.1
Copyright (c) 2008-2010 y-soft. All rights reserved
http://y-soft.org
ANALYZER: auCDtect: CD records authenticity detector, version 0.8.2
Copyright (c) 2004 Oleg Berngardt. All rights reserved.
Copyright (c) 2004 Alexander Djourik. All rights reserved.
FILE: 23 - Paloma Faith - Only Love Can Hurt Like This.flac
  Size: 28582507 Hash: B6BF40F014DE09CDE07BC01B3602B70C Accuracy: -m0
  Conclusion: CDDA 100%
  Signature: 9C03902602BC063F4FDAE52B18F0D149A7388CA5
FILE: 22 - Tove Lo feat. Hippie Sabotage - Stay High (Habits Remix).flac
  Size: 26922624 Hash: 3F86FDADFBA15BDAE414D0578F04039B Accuracy: -m0
  Conclusion: CDDA 100%
  Signature: F9D31703D98FFEB728BDF62FB66F814623EC49E4
FILE: 21 - The Vamps  - Last Night.flac
  Size: 25341792 Hash: 40B3D1E34AF8026D2F141276061115C2 Accuracy: -m0
  Conclusion: CDDA 100%
  Signature: FCF28AFC745D596AA3812397CF23B97ADBAD6C06
FILE: 20 - Sia - Chandelier.flac
  Size: 28593661 Hash: 61337061880117AC268D8942A9FA7455 Accuracy: -m0
  Conclusion: CDDA 100%
  Signature: ADDC139B0610E63D8EEBC82447D04BC136D52CB6
FILE: 19 - Neon Jungle - Welcome To The Jungle.flac
  Size: 26378043 Hash: 9DC6E0E95718386F309BF038B370B824 Accuracy: -m0
  Conclusion: CDDA 100%
  Signature: 9352B1450EE20BD8ED82714A9E80F1B2CF22E056
FILE: 18 - DJ Cassidy feat. Robin Thicke & Jessie J - Calling All Hearts.flac
  Size: 38738202 Hash: D4E012E5A78AF9416189A8379A8E0B49 Accuracy: -m0
  Conclusion: CDDA 100%
  Signature: 315635E295B3BD3B9FD22FB7C9B311C53BA4FBBC
FILE: 17 - Jason Derulo feat. Snoop Dogg - Wiggle.flac
  Size: 22821467 Hash: AA48C9D5F5EE3698BA2B2DDFEEAC807F Accuracy: -m0
  Conclusion: CDDA 100%
  Signature: 034AEE6B032E142515A61EDF48495A89995EEF23
FILE: 16 - Matrix & Futurebound feat. Tanya Lacey - Don't Look Back.flac
  Size: 34172724 Hash: C76240CC11E12BFCABFDE7F0511EA740 Accuracy: -m0
  Conclusion: CDDA 100%
  Signature: B7E9F469AF1007F4F0C9F7001EDADCFD84AE3C21
FILE: 15 - Cash Cash feat. Bebe Rexha - Take Me Home.flac
  Size: 28833295 Hash: 08AB63BC98A5AC2FB4203B2085F9D082 Accuracy: -m0
  Conclusion: CDDA 100%
  Signature: F0151A766B7BDBF049368BE33EA8753B45B0C462
FILE: 14 - John Martin - Anywhere For You.flac
  Size: 27700412 Hash: F3F8260D01BFD0E40A948570B338A3BB Accuracy: -m0
  Conclusion: CDDA 100%
  Signature: 5A7C37B607A90E532516933C42F2D34275DCA54D
FILE: 13 - Tiesto feat. Matthew Koma - Wasted.flac
  Size: 25380713 Hash: 0CB0B84C5B215D9F681A8D0E8336DB50 Accuracy: -m0
  Conclusion: CDDA 100%
  Signature: FE873A1DDBD200B5CB9FADF9E10A95C44D507C8B
FILE: 12 - MK feat. Alana - Always (Route 94 edit).flac
  Size: 16495738 Hash: 97E3DE9A02F08CD8E419AAA7152C214A Accuracy: -m0
  Conclusion: CDDA 99%
  Signature: ACED8BD4B3CF5D41D870BC00F7CF66DC2E397741
FILE: 11 - Shift K3Y - Touch.flac
  Size: 21578408 Hash: 55341E588AF1A46418D51190EE527115 Accuracy: -m0
  Conclusion: CDDA 100%
  Signature: E684686618E91E4528114248DD73DC1292BADCCF
FILE: 10 - DJ Fresh vs. TC feat. Little Nikki - Make You Bounce.flac
  Size: 22404156 Hash: E6606D5AB5AA6F67759DE23E14F09142 Accuracy: -m0
  Conclusion: CDDA 100%
  Signature: 33D63595703DE90BD729C77026555119493507C4
FILE: 09 - Fuse ODG feat. Sean Paul - Dangerous Love.flac
  Size: 30626777 Hash: E5BF428CD353A9A8C3B65DA730588F45 Accuracy: -m0
  Conclusion: CDDA 100%
  Signature: 0F28E587BAD446D2433C23FADAFEC791EE810B37
FILE: 08 - Faul & Wad Ad vs. Pnau - Changes.flac
  Size: 24235019 Hash: 68679597005C1800E58AA568CC9053EC Accuracy: -m0
  Conclusion: CDDA 100%
  Signature: CC47EEFDFF303DD82D1E6B0011F216889E0E0925
FILE: 07 - Klingande - Jubel.flac
  Size: 17942779 Hash: 5200900DB158BD98B37FAB5D491161CE Accuracy: -m0
  Conclusion: CDDA 100%
  Signature: 0F4C020B097608903D46EABBBFDE169C38B54921
FILE: 06 - Secondcity - I Wanna Feel.flac
  Size: 19843004 Hash: D14569758D11BC98C12C4A9A5869120E Accuracy: -m0
  Conclusion: CDDA 100%
  Signature: C6BC9FECDCFF21B85C2F00C78F86DFC8A104B0DF
FILE: 05 - Calvin Harris - Summer.flac
  Size: 29347881 Hash: 540256FA067C1AEDE18734DBAD250BBA Accuracy: -m0
  Conclusion: CDDA 100%
  Signature: C278A11933A6FFE3ACE7A194E2FB4D73A3CD78F9
FILE: 04 - Sigma - Nobody To Love.flac
  Size: 24821784 Hash: 40D0B3AF7833E3B9307C8334C460BAC9 Accuracy: -m0
  Conclusion: CDDA 100%
  Signature: 5CB6011FE98079F6B454FFC56260320F4EFE577D
FILE: 03 - Oliver Heldens x Becky Hill - Gecko (Overdrive).flac
  Size: 21813116 Hash: 8DA014C916D16602FD9F3288C629B906 Accuracy: -m0
  Conclusion: CDDA 100%
  Signature: E2D912D4088749DCA6012E7ED4BDD17940DA3D9A
FILE: 02 - Kiesza - Hideaway.flac
  Size: 26590444 Hash: 061FF0A80CDE30284D1188B68DEAEC0C Accuracy: -m0
  Conclusion: CDDA 99%
  Signature: 9C0A3C61B007E3B580D69D6F3EFBDF93D29C9904
FILE: 01 - Clean Bandit feat. Jess Glynne - Rather Be.flac
  Size: 24047757 Hash: E665CDBE1E7FCD717DCBC2D9075C227A Accuracy: -m0
  Conclusion: CDDA 100%
  Signature: D8D3749AD50740971A20985CEC02FF3FCBFD67A2

Дополнительная информация (англ.&#41;&#58;

This is the 2014 summer edition of the biggest selling compilation brand... ever! NOW Music presents NOW That's What I Call Music! 88. The album features 45 tracks, including a massive 13 Official Singles Chart Number 1s from the likes of: Ella Henderson (Ghost), Ed Sheeran (Sing), Sam Smith (Stay With Me), Mr. Probz (Waves), Kiesza (Hideaway), Oliver Heldens and Becky Hill (Gecko (Overdrive)), Ariana Grande feat. Iggy Azalea (Problem), and the most streamed song of 2014 so far - Rather Be by Clean Bandit FT Jess Glynne You won't need another hit compilation this summer!
The Official Charts Company reported the album as the fastest selling album in 2014 so far, selling 224,000 copies in its first week of sales. NOW 88's predecessor, Now That's What I Call Music 87, is the biggest selling album of 2014 to date. Released in April of this year, NOW 87 has sold over 586,000 copies according to the Official Charts Company's sales data.
NOW That's What I Call Music 88 will be released in the UK on Monday, July 21, and available on CD and downloadable format.
NOW That's What I Call Music! (often shortened to NOW!) is a long-running series of various artists compilation albums released in the United Kingdom by Polygram (as Universal)/EMI/Sony Music/Virgin Records (The Big Four record labels); spinoff series were later introduced in South Africa (1984) and many other countries worldwide, including the United States in 1998. Since its launch in 1983, the series has amassed over 100 million album sales worldwide.
The first NOW! compilation appeared in November 1983 and collected thirty UK hit singles from that year on a double vinyl LP or cassette. The concept of a compilation of recent hit singles was not new; Ronco and K-tel had been issuing single-disc collections since the early 1970s. However, by spreading tracks across two discs instead of one, the NOW! series was able to achieve better sound quality (tracks were often edited to fit a running time on K-Tel and Ronco single disc compilations).
The other major difference of the NOW! series was its collaborative nature between major record labels. Virgin agreed a deal with EMI, which allowed a greater number of major hits to be included (the first album in the series boasted of "eleven number ones" on its sleeve, something previously unheard-of). The album went to number one and soon had a major rival in CBS/WEA's The Hits Album which adopted a similar format to NOW! The two series co-existed for the rest of the 1980s, but when Universal joined the collaboration the NOW! series dominated commercially.
Although the rate of release varied in the early days, it has now settled down to three per year: one release around Easter, another during the summer, and a third around November. The UK series continues to follow the double-album format, now exploiting the capacity of the CD to include between forty and forty-six songs over its two discs. At the current time, the NOW series are only released on CD and digital download formats. Previously the NOW series was available on Vinyl (ended in 1996 with NOW 35); audio cassette (ceased in 2006 with the final cassette being NOW 63) & MiniDisc (started with NOW 43 in 1999 and ended with NOW 48 in 2001) formats, with the decline of popularity with these formats, NOWs are no longer issued on them.
Яндекс.Метрика
Рейтинг@Mail.ru