[ Сегодня на трекере фрилич! Идет свободное скачивание без начисления Download ]

Хит. Сезон 2. Выпуск №8 (2014.11.01) SATRip

 

Создавать темы 01-Ноя-2014 19:23

- Хит. Сезон 2. Выпуск №8 (2014.11.01) SATRip - Режиссер / Телекомпания: Россия
Русское название: Хит
Оригинальное название:
Год выпуска: 2014
Жанр: Музыкальное ТВ-шоу
Описание:
Грандиозная премьера канала "Россия". Новый сезон проекта "Хит", в котором звезды эстрады смогут открыть для себя новых авторов, а сами авторы – появиться на экранах телевизоров и стать популярными, выйдет в эфир телеканала "Россия" 13 сентября.
"Хит" - супершоу, в котором соревнуются не певцы, а сами песни!
Более 20 тысяч песен со всех концов страны - именно столько заявок пришло в новом сезоне на участие в шоу "Хит".
Музыкальный продюсер шоу "Хит", суперзвезда российской эстрады Лариса Долина для 12 звездных участников лично выбрала 36 композиций самых талантливых авторов.
Звезды всегда мечтают открыть для себя нового автора. На глазах многомиллионной аудитории певцы будут выбирать свои будущие хиты!
Имя единственного победителя мы узнаем в конце проекта.
Участники: Денис Клявер, Алсу, Надежда Бабкина, Артур Пирожков (Александр Ревва), Витас, Лолита, Натали, Иракли, Дмитрий Колдун, Любовь Успенская, Потап и Настя, Наташа Королева
Ведущий: Александр Анатольевич и Иван Чуйков
Музыкальный продюсер проекта: Лариса Долина
Продолжительность: ~ 00:50:00
Видеокодек: XVID
Битрейт видео: ~1800 kb/s
Размер кадра: 720 x 400
Качество видео: SATRip
Аудиокодек: AC-3, 2ch.
Битрейт аудио: 192 kb/s

MediaInfo

Формат : AVI
Формат/Информация : Audio Video Interleave
Размер файла : 716 Мбайт
Продолжительность : 50 м.
Общий поток : 2001 Кбит/сек
Программа кодирования : VirtualDubMod 1.5.10.3 | www.virtualdub-fr.org || (build 2550/release)
Библиотека кодирования : VirtualDubMod build 2550/release
Видео
Идентификатор : 0
Формат : MPEG-4 Visual
Профиль формата : Advanced [email protected]
Параметр BVOP формата : 2
Параметр QPel формата : Нет
Параметр GMC формата : Без точки перехода
Параметр матрицы формата : Default (H.263)
Идентификатор кодека : XVID
Идентификатор кодека/Подсказка : XviD
Продолжительность : 50 м.
Битрейт : 1800 Кбит/сек
Ширина : 720 пикселей
Высота : 400 пикселей
Соотношение сторон : 16:9
Частота кадров : 25,000 кадров/сек
Цветовое пространство : YUV
Субдискретизация насыщенности : 4:2:0
Битовая глубина : 8 бит
Тип развёртки : Прогрессивная
Метод сжатия : С потерями
Бит/(Пиксели*Кадры) : 0.250
Размер потока : 644 Мбайт (90%)
Библиотека кодирования : XviD 1.2.1 (UTC 2008-12-04)
Аудио
Идентификатор : 1
Формат : AC-3
Формат/Информация : Audio Coding 3
Расширение режима : CM (complete main)
Параметр Endianness формата : Big
Идентификатор кодека : 2000
Продолжительность : 50 м.
Вид битрейта : Постоянный
Битрейт : 192 Кбит/сек
Каналы : 2 канала
Расположение каналов : Front: L R
Частота : 48,0 КГц
Битовая глубина : 16 бит
Метод сжатия : С потерями
Размер потока : 68,7 Мбайт (10%)
Выравнивание : Разделение по промежуткам
Продолжительность промежутка : 40 мс. (1,00 видеокадр)
Время предзагрузки промежутка : 500 мс.
-Скриншоты:--Время раздачи: 24/7. До первых 5 скачавших.-Rip by Taz-
Яндекс.Метрика
Рейтинг@Mail.ru