Ставка (2014) SATRip (4 серии из 4)

 

Создавать темы 01-Ноя-2014 19:20

-Ставка (20014) SATRip (4 серии из 4)- Режиссер / Телекомпания: Россия, ОАО «ТРК ВС РФ «ЗВЕЗДА»
Год выпуска: 20014
Жанр: Документальный, война, история
Описание:
Ставка Верховного Главнокомандования была создана советским руководством 23 июня 1941 года – на второй день Великой Отечественной войны. Это был новый чрезвычайный орган управления войсками. Именно Ставка взяла на себя ответственность за судьбу огромной страны и собрала в единый кулак волю населявших ее народов. Она обратила военную катастрофу в череду блистательных ударов по врагу, которые привели к его разгрому. Она дала возможность раскрыть свой талант целой плеяде выдающихся, свободно мыслящих и не боящихся ответственности полководцев. Она привела к Победе миллионы простых людей, которые на фронтах войны и в тылу, не считаясь с собственной жизнью, подчинили все этой цели.
Доп. информация: SATRip by alf62

Продолжительность: 4 х ~ 00:38:00
Качество видео: SATRip
Видеокодек: DivX 5
Битрейт видео: ~1794 kb/s
Размер кадра: 704x400
Аудиокодек: AC3
Битрейт аудио: 192 kb/s (2 канала, stereo) CBR

Список выпусков/серий

1. Катастрофа
2. Черная полоса
3. Перелом
4. Победа

MediaInfo

Ставка\Stavka.2014.DivX.SATRip.alf62\Stavka.(1.serija.iz.4).Katastrofa.2014.DivX.SATRip.alf62.avi
Формат : AVI
Формат/Информация : Audio Video Interleave
Размер файла : 542 Мбайт
Продолжительность : 37 м.
Общий поток : 1996 Кбит/сек
Программа кодирования : VirtualDubMod 1.5.10.3 | www.virtualdub-fr.org || (build 2550/release)
Библиотека кодирования : VirtualDubMod build 2550/release
Видео
Идентификатор : 0
Формат : MPEG-4 Visual
Профиль формата : Advanced [email protected]
Параметр BVOP формата : 2
Параметр QPel формата : Нет
Параметр GMC формата : Без точки перехода
Параметр матрицы формата : Default (MPEG)
Идентификатор кодека : DX50
Идентификатор кодека/Подсказка : DivX 5
Продолжительность : 37 м.
Битрейт : 1794 Кбит/сек
Ширина : 704 пикселя
Высота : 400 пикселей
Соотношение сторон : 16:9
Частота кадров : 25,000 кадров/сек
Цветовое пространство : YUV
Субдискретизация насыщенности : 4:2:0
Битовая глубина : 8 бит
Тип развёртки : Прогрессивная
Метод сжатия : С потерями
Бит/(Пиксели*Кадры) : 0.255
Размер потока : 488 Мбайт (90%)
Библиотека кодирования : XviD 73
Аудио
Идентификатор : 1
Формат : AC-3
Формат/Информация : Audio Coding 3
Расширение режима : CM (complete main)
Параметр Endianness формата : Big
Идентификатор кодека : 2000
Продолжительность : 37 м.
Вид битрейта : Постоянный
Битрейт : 192 Кбит/сек
Каналы : 2 канала
Расположение каналов : Front: L R
Частота : 48,0 КГц
Битовая глубина : 16 бит
Метод сжатия : С потерями
Размер потока : 52,2 Мбайт (10%)
Выравнивание : Разделение по промежуткам
Продолжительность промежутка : 40 мс. (1,00 видеокадр)
Время предзагрузки промежутка : 500 мс.
Скриншоты:
--Время раздачи: 24/7 (круглосуточно)
Яндекс.Метрика
Рейтинг@Mail.ru