Я худею (2014.11.01) SATRip

 

Создавать темы 01-Ноя-2014 18:05

- Я худею (2014.11.01) SATRip - Режиссер / Телекомпания: НТВ
Русское название: Я худею
Год выпуска: 2014
Жанр: Документальный
Выпущено:
Описание:
Героиня программы мечтает похудеть без лишних усилий. В ход идут чудо-пояса, кремы для стройности и даже бабушкино средство – уксус! Таким, как она, подойдет разработанная диетологами диета для ленивых. Оказывается, можно есть на ночь мясо и при этом худеть. Или уплетать за обе щеки фастфуд и не набрать ни грамма лишнего веса! А вместо изнуряющих тренировок достаточно делать дыхательную гимнастику.
Продолжительность: 00:50:49
Видеокодек: Xvid
Битрейт видео: ~1800 Кбит/сек
Размер кадра: 720 x 448
Качество видео: SATRip
Аудиокодек: MP3, 2ch.
Битрейт аудио: 128 Кбит/сек

MediaInfo:

Формат : AVI
Формат/Информация : Audio Video Interleave
Размер файла : 704 Мбайт
Продолжительность : 50 м.
Общий поток : 1938 Кбит/сек
Программа кодирования : VirtualDubMod 1.5.10.3 | www.virtualdub-fr.org || (build 2550/release)
Библиотека кодирования : VirtualDubMod build 2550/release
Видео
Идентификатор : 0
Формат : MPEG-4 Visual
Профиль формата : Advanced [email protected]
Параметр BVOP формата : 2
Параметр QPel формата : Нет
Параметр GMC формата : Без точки перехода
Параметр матрицы формата : Default (H.263)
Идентификатор кодека : XVID
Идентификатор кодека/Подсказка : XviD
Продолжительность : 50 м.
Битрейт : 1800 Кбит/сек
Ширина : 720 пикселей
Высота : 448 пикселей
Соотношение сторон : 16:10
Частота кадров : 25,000 кадров/сек
Цветовое пространство : YUV
Субдискретизация насыщенности : 4:2:0
Битовая глубина : 8 бит
Тип развёртки : Прогрессивная
Метод сжатия : С потерями
Бит/(Пиксели*Кадры) : 0.223
Размер потока : 654 Мбайт (93%)
Библиотека кодирования : XviD 1.2.1 (UTC 2008-12-04)
Аудио
Идентификатор : 1
Формат : MPEG Audio
Версия формата : Version 1
Профиль формата : Layer 3
Режим : Joint stereo
Идентификатор кодека : 55
Идентификатор кодека/Подсказка : MP3
Продолжительность : 50 м.
Вид битрейта : Постоянный
Битрейт : 128 Кбит/сек
Каналы : 2 канала
Частота : 48,0 КГц
Метод сжатия : С потерями
Размер потока : 46,5 Мбайт (7%)
Выравнивание : Соединение по промежуткам
Продолжительность промежутка : 40 мс. (1,00 видеокадр)
Время предзагрузки промежутка : 504 мс.
Библиотека кодирования : LAME3.99r
Настройки программы : -m j -V 4 -q 9 -lowpass 17 -b 128
-Скриншоты:--Время раздачи: 24/7. До первых 5 скачавших.-Rip by Taz-
Яндекс.Метрика
Рейтинг@Mail.ru