Travel: Чудеса планеты / Earth Wonders (Bosie Vincent) [2010 г., Документальный, познавательный, путешествия, туризм, HDTVRip 720p] (сезон 1 серии 1-3 из 5)

 

Создавать темы 01-Ноя-2014 17:49

-Travel: Чудеса планеты / Earth Wonders (Bosie Vincent) [2010 г., Документальный, познавательный, путешествия, туризм, HDTVRip 720p](сезон 1 серии 1-3 из 5)- Режиссер / Телекомпания: Bosie Vincent / США, Cicada Productions for Travel Channel
Год выпуска: 2010
Жанр: Документальный
Описание:
На нашей планете очень много необычных вещей. Некоторые из них – маленькие и простые на первый взгляд, но при более детальном рассмотрении, они раскрываются во всей своей необычайной красоте. Иногда людям просто нужно быть внимательнее, чтобы иметь возможность наслаждаться невероятными, восхитительными явлениями.Список серий:01. Niagara Falls, Grand Canyon, Iceland, Bora Bora
В выпуске: побываем близ водопада Ниагара, африканского кратера Нгоронгоро, отдохнём на райском острове Бора-Бора, посетим Национальный парк Секвойя, вулканические ледники Исландии и величественный Гранд-Каньон.
02. Glacier Bay, Airs Rock, Amazon River
В выпуске: насладимся запоминающейся красотой пустыни Намиб, изумительным миром льда Глейшер Бей на Аляске, древней австралийской громадой Улуру, потрясающим слиянием легендарной реки Южной Америки Амазонки, красотами Национального парка Йосемити и парящими в воздухе скалами Национального парка Арки в Юте.
03. Bay of Fundy, Iceland, Monument Valley
В выпуске: побываем в новозеландском фьорде Милфорд-Саунд, проследим за миграциями животных на равнинах Серенгети, посетим Национальный парк Зайон в американском штате Юта, посмотрим на самый высокий прилив в заливе Фанди и проплывём между двумя континентами, там где Исландия раскалывается пополам, а также увидим уникальное и знаменитое на весь мир геологическое образование "Долина монументов".
Продолжительность: 3x~00:42:51
Качество видео: HDTVRip 720p
Перевод: Одноголосый закадровый, профессиональный
Видеокодек: MPEG-4 AVC/H.264
Битрейт видео: ~3729 kbps
Размер кадра: 1280х720
Аудиокодек: AC3
Битрейт аудио: 2ch, 48kHz, 192 kbps

MediaInfo

Format : Matroska
Format version : Version 4 / Version 2
File size : 1.20 GiB
Duration : 42mn 50s
Overall bit rate mode : Constant
Overall bit rate : 4 001 Kbps
Encoded date : UTC 2014-10-17 16:33:34
Writing application : mkvmerge v7.2.0 ('On Every Street') 64bit built on Sep 13 2014 15:52:10
Writing library : libebml v1.3.0 + libmatroska v1.4.1
DURATION : 00:42:50.600000000
NUMBER_OF_FRAMES : 64265
NUMBER_OF_BYTES : 1223346722
_STATISTICS_WRITING_APP : mkvmerge v7.2.0 ('On Every Street') 64bit built on Sep 13 2014 15:52:10
_STATISTICS_WRITING_DATE_UTC : 2014-10-17 16:33:34
_STATISTICS_TAGS : BPS DURATION NUMBER_OF_FRAMES NUMBER_OF_BYTES
Video
ID : 1
Format : AVC
Format/Info : Advanced Video Codec
Format profile : [url=mailto:[email protected]][email protected][/url]
Format settings, CABAC : Yes
Format settings, ReFrames : 3 frames
Codec ID : V_MPEG4/ISO/AVC
Duration : 42mn 50s
Bit rate mode : Constant
Bit rate : 3 729 Kbps
Nominal bit rate : 4 000 Kbps / 4 000 Kbps
Width : 1 280 pixels
Height : 720 pixels
Display aspect ratio : 16:9
Frame rate mode : Constant
Frame rate : 25.000 fps
Standard : NTSC
Color space : YUV
Chroma subsampling : 4:2:0
Bit depth : 8 bits
Scan type : Progressive
Bits/(Pixel*Frame) : 0.162
Stream size : 1.12 GiB (93%)
Writing library : x264 core 114
Encoding settings : cabac=1 / ref=3 / deblock=1:0:0 / analyse=0x3:0x113 / me=hex / subme=7 / psy=1 / psy_rd=1.00:0.00 / mixed_ref=1 / me_range=16 / chroma_me=1 / trellis=1 / 8x8dct=1 / cqm=2 / deadzone=21,11 / fast_pskip=1 / chroma_qp_offset=-2 / threads=6 / sliced_threads=0 / slices=1 / nr=0 / decimate=1 / interlaced=0 / constrained_intra=0 / bframes=3 / b_pyramid=0 / b_adapt=1 / b_bias=0 / direct=1 / weightb=1 / open_gop=0 / weightp=2 / keyint=250 / keyint_min=25 / scenecut=40 / intra_refresh=0 / rc_lookahead=40 / rc=cbr / mbtree=1 / bitrate=4000 / ratetol=1.0 / qcomp=0.60 / qpmin=3 / qpmax=69 / qpstep=4 / vbv_maxrate=4000 / vbv_bufsize=3997 / nal_hrd=cbr / ip_ratio=1.40 / aq=1:1.00
Default : Yes
Forced : No
Color primaries : BT.709
Transfer characteristics : BT.709
Matrix coefficients : BT.709
Audio
ID : 2
Format : AC-3
Format/Info : Audio Coding 3
Mode extension : CM (complete main)
Format settings, Endianness : Big
Codec ID : A_AC3
Duration : 42mn 50s
Bit rate mode : Constant
Bit rate : 192 Kbps
Channel(s) : 2 channels
Channel positions : Front: L R
Sampling rate : 48.0 KHz
Bit depth : 16 bits
Compression mode : Lossy
Stream size : 58.8 MiB (5%)
Default : Yes
Forced : No
Скриншоты:
-Время раздачи: до 22:00:00
Яндекс.Метрика
Рейтинг@Mail.ru