[ Сегодня на трекере фрилич! Идет свободное скачивание без начисления Download ]

Хочу к Меладзе. Выпуск 9 (2014.11.01) SATRip

 

Создавать темы 01-Ноя-2014 17:44

- Хочу к Меладзе. Выпуск 9 (2014.11.01) SATRip - Режиссер / Телекомпания: НТВ
Русское название: Хочу к Меладзе
Год выпуска: 2014
Жанр: Музыкальное шоу
Описание:
Долгожданная премьера шоу «Хочу к Меладзе», в котором самые обычные, но талантливые парни становятся настоящими звездами. Их статус, возраст, внешность не имеют значения. Главное – вера в свои силы и талант.
Композитор и продюсер Константин Меладзе проверит, на что же готовы молодые дарования для достижения успеха и славы?
Побороться за место в новой группе приехали парни не только из России, Украины, Беларуси, Казахстана, но и из Латвии, Литвы, Германии, США и даже из Пакистана и Ирана.
Сцену-трансформер, где будут выступать участники, разделяет стена. По правилам шоу конкурсанта видит только женская половина судей – они в наушниках и оценивают глазами. А за голос отвечают мужчины, которые находятся по другую сторону стены и не видят претендента. Если трое из шести судей нажмут свой рычаг, стена повернется, и конкурсант получит возможность услышать вердикт Константина Меладзе.
Счастливчиков, допущенных в следующий тур, разделят на группы: они будут самостоятельно готовить музыкальные номера, включая костюмы и хореографию. После выступления перед судьями команды, получившие голос от жюри или продюсера, пройдут дальше, приближаясь еще на один шаг к победе.
За каждой группой будет закреплен свой наставник из жюри, вместе с которым участникам предстоит постигать искусство выступлений, подбирать репертуар и работать над сценическим образом.
В финал шоу попадут только два сильнейших бойз-бенда. Победителей выберут зрители путем смс-голосования. Группу, набравшую наибольшее количество голосов, ждет контракт с продюсерским центром Константина Меладзе.
Ведущий: Игорь Верник и Вера Брежнева
Жюри: Полина Гагарина, Анна Седокова, Ева Польна, Сергей Лазарев, Владимир Пресняков и Тимати
Продолжительность: 01:30:05
Видеокодек: Xvid
Битрейт видео: ~1800 Кбит/сек
Размер кадра: 720 x 448
Качество видео: SATRip
Аудиокодек: MP3, 2ch.
Битрейт аудио: 128 Кбит/сек

MediaInfo:

Формат : AVI
Формат/Информация : Audio Video Interleave
Размер файла : 1,22 Гбайт
Продолжительность : 1 ч. 30 м.
Общий поток : 1938 Кбит/сек
Видео
Идентификатор : 0
Формат : MPEG-4 Visual
Профиль формата : Advanced [email protected]
Параметр BVOP формата : 2
Параметр QPel формата : Нет
Параметр GMC формата : Без точки перехода
Параметр матрицы формата : Default (H.263)
Идентификатор кодека : XVID
Идентификатор кодека/Подсказка : XviD
Продолжительность : 1 ч. 30 м.
Битрейт : 1797 Кбит/сек
Ширина : 720 пикселей
Высота : 448 пикселей
Соотношение сторон : 16:10
Частота кадров : 25,000 кадров/сек
Цветовое пространство : YUV
Субдискретизация насыщенности : 4:2:0
Битовая глубина : 8 бит
Тип развёртки : Прогрессивная
Метод сжатия : С потерями
Бит/(Пиксели*Кадры) : 0.223
Размер потока : 1,13 Гбайт (93%)
Библиотека кодирования : XviD 1.2.1 (UTC 2008-12-04)
Аудио
Идентификатор : 1
Формат : MPEG Audio
Версия формата : Version 1
Профиль формата : Layer 3
Режим : Joint stereo
Идентификатор кодека : 55
Идентификатор кодека/Подсказка : MP3
Продолжительность : 1 ч. 30 м.
Вид битрейта : Постоянный
Битрейт : 128 Кбит/сек
Каналы : 2 канала
Частота : 48,0 КГц
Метод сжатия : С потерями
Размер потока : 82,5 Мбайт (7%)
Выравнивание : Соединение по промежуткам
Продолжительность промежутка : 24 мс. (0,60 видеокадр)
Библиотека кодирования : LAME3.99r
Настройки программы : -m j -V 4 -q 9 -lowpass 17 -b 128
Скриншоты:-Время раздачи: 24/7. До первых 5 скачавших.-Rip by Taz-
Яндекс.Метрика
Рейтинг@Mail.ru