Приключения бобрёнка / Meche Blanche, les aventures du petit castor (2008) BDRip

 

Создавать темы 01-Ноя-2014 17:41

-Приключения бобрёнка / Meche Blanche, les aventures du petit castor (2008) BDRip [H.264]- Режиссер / Телекомпания: Филипп Калдерон
Страна: Франция
Год выпуска: 2008
Жанр: Документальный, семейный
Продолжительность: 01:14:22
Перевод: Одноголосый закадровый (профессиональный, Николай Дроздов)
Субтитры: отсутствуют
Видеокодек: MPEG-4 AVC/H.264
Битрейт видео: ~2 000 Кбит/с
Размер кадра: 720 x 480
Качество видео: BDRip
Аудио:
1. [русский] MP3, 2 ch, 128 Кбит/с
Описание: Фильм рассказывает о приключениях еще совсем маленького, но уже отважного бобренка по имени Белый Хохолок. Он жил вместе со своей Матушкой Бобрихой и Маленькой Сестрой возле плотины на большой реке. Но однажды убежище бобров было разрушено, и сильный поток унес Белого Хохолка далеко от его семьи. Нашего героя ждет опасное путешествие, неожиданные встречи и, конечно, встреча с родными. «Приключения Бобренка» -удивительный фильм о жизни дикой природы, все его герои - обитатели охраняемого заповедника «Сагеней» на берегу озера Сен-Жан в Канаде.

MediaInfo

Общее
Уникальный идентификатор : 73286401702542215064665873752754311230 (0x37227292FFD41EA7B11E8987918D503E)
Полное имя : D:\Video\Prikliuchenija.bobrenka.2008.BDRip.mkv
Формат : Matroska
Версия формата : Version 2
Размер файла : 1,09 Гбайт
Продолжительность : 1 ч. 14 м.
Общий поток : 2098 Кбит/сек
Программа кодирования : Lavf52.39.0
Библиотека кодирования : Lavf52.39.0
Видео
Идентификатор : 1
Формат : AVC
Формат/Информация : Advanced Video Codec
Профиль формата : [url=mailto:[email protected]][email protected][/url]
Параметр CABAC формата : Нет
Параметр ReFrames формата : 1 кадр
Идентификатор кодека : V_MPEG4/ISO/AVC
Продолжительность : 1 ч. 14 м.
Битрейт : 2000 Кбит/сек
Ширина : 720 пикселей
Высота : 480 пикселей
Соотношение сторон : 3:2
Режим частоты кадров : Постоянный
Частота кадров : 25,000 кадров/сек
Стандарт вещания : NTSC
Цветовое пространство : YUV
Субдискретизация насыщенности : 4:2:0
Битовая глубина : 8 бит
Тип развёртки : Прогрессивная
Бит/(Пиксели*Кадры) : 0.231
Размер потока : 1,00 Гбайт (92%)
Библиотека кодирования : x264 core 77
Настройки программы : cabac=0 / ref=1 / deblock=0:0:0 / analyse=0x1:0 / me=dia / subme=8 / psy=1 / psy_rd=1.0:0.0 / mixed_ref=0 / me_range=16 / chroma_me=0 / trellis=0 / 8x8dct=0 / cqm=0 / deadzone=21,11 / chroma_qp_offset=-2 / threads=2 / nr=0 / decimate=1 / mbaff=0 / constrained_intra=0 / bframes=0 / keyint=250 / keyint_min=25 / scenecut=0 / rc_lookahead=40 / rc=abr / mbtree=1 / bitrate=2000 / ratetol=1.0 / qcomp=0.60 / qpmin=10 / qpmax=51 / qpstep=4 / ip_ratio=1.41 / aq=1:1.00
Язык : English
Default : Да
Forced : Нет
Аудио
Идентификатор : 2
Формат : MPEG Audio
Версия формата : Version 1
Профиль формата : Layer 3
Режим : Joint stereo
Расширение режима : MS Stereo
Идентификатор кодека : A_MPEG/L3
Идентификатор кодека/Подсказка : MP3
Продолжительность : 1 ч. 14 м.
Вид битрейта : Постоянный
Битрейт : 128 Кбит/сек
Каналы : 2 канала
Частота : 44,1 КГц
Метод сжатия : С потерями
Задержка видео : -80 мс.
Размер потока : 68,1 Мбайт (6%)
Библиотека кодирования : LAME3.98.2
Язык : Russian
Default : Да
Forced : Нет
Скриншоты:
--Пожалуйста, не уходите с раздачи - помогите докачать другим. Если понравился релиз - жмите кнопку "Спасибо"!-Время раздачи: 24 / 7
Яндекс.Метрика
Рейтинг@Mail.ru