Черепашки-ниндзя / Teenage Mutant Ninja Turtles (Джонатан Либесман)(2014,Фантастика, Боевик, Комедия) WEB-DL [H.264/1080p-LQ] [Line]

 

Создавать темы 31-Окт-2014 16:28

-Черепашки-ниндзя / Teenage Mutant Ninja Turtles (2014) WEB-DL [H.264/1080p-LQ] [Line]- Год выпуска: 2014
Производство: США, Nickelodeon Movies, Paramount Pictures, Heavy Metal, Gama Entertainment Partners
Жанр: Фантастика, Боевик, Комедия
Режиссер: Джонатан Либесман
Продюсер: Майкл Бэй, Йен Брайс, Эндрю Форм
Актеры: Меган Фокс, Уилл Арнетт, Уильям Фихтнер, Алан Ричсон, Ноэль Фишер, Пит Пложек, Джонни Ноксвил, Джереми Ховард, Дэнни Вудберн, Тони Шэлуб
Описание фильма:
Город нуждается в героях. Тьма окутала Нью-Йорк в виде Шреддера и его зловещего Клана Футов, у которого имеется железный контроль над всеми, от полицейских до политиков. Будущее выглядит мрачным, пока из канализации не поднимается и не раскрывает своё предназначение четвёрка отверженных братьев — Черепашки-ниндзя. Черепашки должны работать вместе с бесстрашным репортёром Эйприл и её саркастическим оператором Верном Фенвиком, чтобы спасти город и разгадать дьявольский план Шреддера.
Перевод: Дублированный (Чистый звук)
Субтитры: Вшитые отключаемые
Язык субтитров: Английский (Full)

Рейтинг MPAA: PG-13
Возраст: 6+
Дата мировой премьеры: 3 августа 2014
Дата российской премьеры: 7 августа 2014, «Централ Партнершип» 3D
Дата выхода DVD релиза: 15 декабря 2014, «Новый Диск»
Продолжительность: 01:41:30
Качество видео: WEB-DLRip
Видеокодек: MPEG-4 AVC/H.264
Битрейт видео: 4217 Kbps
Размер кадра: 1912x796, 23.976 fps
Аудио »1: 48 kHz, AC3 Dolby Digital, 2/0 (L,R) ch, ~192.00 kbps avg (Русский) / Дубляж
Аудио »2: 48 kHz, AC3 Dolby Digital, 3/2 (L,C,R,l,r) + LFE ch, ~384.00 kbps avg (Английский) / Оригинал

MI

Общее
Уникальный идентификатор                 : 183842330246612838237153415054712823638 (0x8A4EBEB0E6893703A3D4FA1CFAAEDF56)
Полное имя                               : D:\Мужа\Черепашки-ниндзя.2014.WEB-DL.1080p.NNM-CLUB.mkv
Формат                                   : Matroska
Версия формата                           : Version 4 / Version 2
Размер файла                             : 3,47 Гбайт
Продолжительность                        : 1 ч. 41 м.
Общий поток                              : 4891 Кбит/сек
Дата кодирования                         : UTC 2014-10-30 06:27:28
Программа кодирования                    : mkvmerge v7.0.0 ('Where We Going') 64bit built on Jun  9 2014 15:16:27
Библиотека кодирования                   : libebml v1.3.0 + libmatroska v1.4.1
Обложка                                  : Yes / Yes / Yes / Yes
_STATISTICS_WRITING_APP                  : mkvmerge v7.0.0 ('Where We Going') 64bit built on Jun  9 2014 15:16:27
_STATISTICS_WRITING_DATE_UTC             : 2014-10-30 06:27:28
_STATISTICS_TAGS                         : BPS DURATION NUMBER_OF_FRAMES NUMBER_OF_BYTES
DURATION                                 : 01:41:30.880000000
NUMBER_OF_FRAMES                         : 190340
NUMBER_OF_BYTES                          : 146181120
Видео
Идентификатор                            : 1
Формат                                   : AVC
Формат/Информация                        : Advanced Video Codec
Профиль формата                          : [url=mailto:[email protected]][email protected][/url]
Параметр CABAC формата                   : Да
Параметр ReFrames формата                : 5 кадров
Идентификатор кодека                     : V_MPEG4/ISO/AVC
Продолжительность                        : 1 ч. 41 м.
Битрейт                                  : 4217 Кбит/сек
Ширина                                   : 1912 пикселей
Высота                                   : 796 пикселей
Соотношение сторон                       : 2,40:1
Режим частоты кадров                     : Постоянный
Частота кадров                           : 23,976 кадра/сек
Цветовое пространство                    : YUV
Субдискретизация насыщенности            : 4:2:0
Битовая глубина                          : 8 бит
Тип развёртки                            : Прогрессивная
Бит/(Пиксели*Кадры)                      : 0.116
Размер потока                            : 2,99 Гбайт (86%)
Язык                                     : English
Default                                  : Да
Forced                                   : Нет
Основные цвета                           : BT.709
Характеристики трансфера                 : BT.709
Коэффициенты матрицы                     : BT.709
Аудио #1
Идентификатор                            : 2
Формат                                   : AC-3
Формат/Информация                        : Audio Coding 3
Расширение режима                        : CM (complete main)
Параметр Endianness формата              : Big
Идентификатор кодека                     : A_AC3
Продолжительность                        : 1 ч. 41 м.
Вид битрейта                             : Постоянный
Битрейт                                  : 192 Кбит/сек
Каналы                                   : 2 канала
Расположение каналов                     : Front: L R
Частота                                  : 48,0 КГц
Битовая глубина                          : 16 бит
Метод сжатия                             : С потерями
Размер потока                            : 139 Мбайт (4%)
Default                                  : Да
Forced                                   : Нет
Аудио #2
Идентификатор                            : 3
Формат                                   : AC-3
Формат/Информация                        : Audio Coding 3
Расширение режима                        : CM (complete main)
Параметр Endianness формата              : Big
Идентификатор кодека                     : A_AC3
Продолжительность                        : 1 ч. 41 м.
Вид битрейта                             : Постоянный
Битрейт                                  : 384 Кбит/сек
Каналы                                   : 6 каналов
Расположение каналов                     : Front: L C R, Side: L R, LFE
Частота                                  : 48,0 КГц
Битовая глубина                          : 16 бит
Метод сжатия                             : С потерями
Размер потока                            : 279 Мбайт (8%)
Язык                                     : English
Default                                  : Нет
Forced                                   : Нет
Текст
Идентификатор                            : 4
Формат                                   : UTF-8
Идентификатор кодека                     : S_TEXT/UTF8
Идентификатор кодека/Информация          : UTF-8 Plain Text
Язык                                     : English
Default                                  : Нет
Forced                                   : Нет
Меню
00:00:00.000                             : en:Chapter 1
00:02:42.000                             : en:Chapter 2
00:06:00.000                             : en:Chapter 3
00:11:51.000                             : en:Chapter 4
00:16:01.000                             : en:Chapter 5
00:22:02.000                             : en:Chapter 6
00:28:22.000                             : en:Chapter 7
00:34:02.000                             : en:Chapter 8
00:38:04.000                             : en:Chapter 9
00:42:10.000                             : en:Chapter 10
00:48:36.000                             : en:Chapter 11
00:55:46.000                             : en:Chapter 12
01:00:44.000                             : en:Chapter 13
01:07:46.000                             : en:Chapter 14
01:15:30.000                             : en:Chapter 15
01:24:11.000                             : en:Chapter 16
01:30:17.000                             : en:Chapter 17
01:34:13.000                             : en:Chapter 18
Скриншоты:
Яндекс.Метрика
Рейтинг@Mail.ru