[ Сегодня на трекере фрилич! Идет свободное скачивание без начисления Download ]

Хроники московского быта. Первая древнейшая (2014.10.29) SATRip

 

Создавать темы 31-Окт-2014 09:36

- Хроники московского быта. Первая древнейшая (2014.10.29) SATRip - Режиссер / Телекомпания: ТВЦ
Русское название: Хроники московского быта
Год выпуска: 2014
Жанр: Документальный
Описание:
В морально чистом советском обществе проституция, как и во все времена, цвела пышным цветом. Подпольные притоны для высокопоставленных лиц, интуристовские путаны, девушки на обочинах дорог. Откуда брались эти жрицы продажной любви? И только ли деньги заставляли комсомолок идти на панель?
Режиссёр: Екатерина Игнатьева
Ведущий: Алексей Митрофанов
Продолжительность: ~ 00:39:45
Видеокодек: XVID
Битрейт видео: ~1800 kb/s
Размер кадра: 688 x 512
Качество видео: SATRip
Аудиокодек: MP3, 2ch.
Битрейт аудио: 128 kb/s

MediaInfo

Формат : AVI
Формат/Информация : Audio Video Interleave
Размер файла : 551 Мбайт
Продолжительность : 39 м.
Общий поток : 1938 Кбит/сек
Программа кодирования : VirtualDubMod 1.5.10.3 | www.virtualdub-fr.org || (build 2550/release)
Библиотека кодирования : VirtualDubMod build 2550/release
Видео
Идентификатор : 0
Формат : MPEG-4 Visual
Профиль формата : Advanced [email protected]
Параметр BVOP формата : 1
Параметр QPel формата : Нет
Параметр GMC формата : Без точки перехода
Параметр матрицы формата : Default (MPEG)
Идентификатор кодека : XVID
Идентификатор кодека/Подсказка : XviD
Продолжительность : 39 м.
Битрейт : 1800 Кбит/сек
Ширина : 688 пикселей
Высота : 512 пикселей
Соотношение сторон : 4:3
Частота кадров : 25,000 кадров/сек
Цветовое пространство : YUV
Субдискретизация насыщенности : 4:2:0
Битовая глубина : 8 бит
Тип развёртки : Прогрессивная
Метод сжатия : С потерями
Бит/(Пиксели*Кадры) : 0.204
Размер потока : 512 Мбайт (93%)
Библиотека кодирования : XviD 1.2.1 (UTC 2008-12-04)
Аудио
Идентификатор : 1
Формат : MPEG Audio
Версия формата : Version 1
Профиль формата : Layer 3
Идентификатор кодека : 55
Идентификатор кодека/Подсказка : MP3
Продолжительность : 39 м.
Вид битрейта : Постоянный
Битрейт : 128 Кбит/сек
Каналы : 2 канала
Частота : 48,0 КГц
Метод сжатия : С потерями
Размер потока : 36,4 Мбайт (7%)
Выравнивание : Соединение по промежуткам
Продолжительность промежутка : 40 мс. (1,00 видеокадр)
Время предзагрузки промежутка : 504 мс.
Библиотека кодирования : LAME3.99r
Настройки программы : -m s -V 4 -q 2 -lowpass 17 -b 128
Скриншоты:-Время раздачи: 24/7. До первых 5 скачавших.
Rip by Печаль
Яндекс.Метрика
Рейтинг@Mail.ru