[ Сегодня на трекере фрилич! Идет свободное скачивание без начисления Download ]

Линия защиты. Охотники за головами (2014.10.29) SATRip

 

Создавать темы 31-Окт-2014 09:34

- Линия защиты. Охотники за головами (2014.10.29) SATRip - Режиссер / Телекомпания: ТВЦ
Русское название: Линия защиты
Год выпуска: 2014
Жанр: Документальный
Выпущено: Россия
Описание:
Он объявил небывалую награду за поимку преступника!.. А он выследил бен Ладена, но так и не стал миллионером. "Охота за головами" - выгодный бизнес или русская рулетка? Кто они – новые русские пинкертоны?
Режиссер: Александр Брызгалов
Продолжительность: 00:25:29
Видеокодек: Xvid
Битрейт видео: ~1500 Кбит/сек
Размер кадра: 704 x 400
Качество видео: SATRip
Аудиокодек: MP3, 2ch.
Битрейт аудио: 128 Кбит/сек

MediaInfo:

Формат : AVI
Формат/Информация : Audio Video Interleave
Размер файла : 298 Мбайт
Продолжительность : 25 м.
Общий поток : 1636 Кбит/сек
Программа кодирования : VirtualDubMod 1.5.10.3 | www.virtualdub-fr.org || (build 2550/release)
Библиотека кодирования : VirtualDubMod build 2550/release
Видео
Идентификатор : 0
Формат : MPEG-4 Visual
Профиль формата : Advanced [email protected]
Параметр BVOP формата : 2
Параметр QPel формата : Нет
Параметр GMC формата : Без точки перехода
Параметр матрицы формата : Default (MPEG)
Идентификатор кодека : XVID
Идентификатор кодека/Подсказка : XviD
Продолжительность : 25 м.
Битрейт : 1499 Кбит/сек
Ширина : 704 пикселя
Высота : 400 пикселей
Соотношение сторон : 16:9
Частота кадров : 25,000 кадров/сек
Цветовое пространство : YUV
Субдискретизация насыщенности : 4:2:0
Битовая глубина : 8 бит
Тип развёртки : Прогрессивная
Метод сжатия : С потерями
Бит/(Пиксели*Кадры) : 0.213
Размер потока : 273 Мбайт (92%)
Библиотека кодирования : XviD 1.2.1 (UTC 2008-12-04)
Аудио
Идентификатор : 1
Формат : MPEG Audio
Версия формата : Version 1
Профиль формата : Layer 3
Идентификатор кодека : 55
Идентификатор кодека/Подсказка : MP3
Продолжительность : 25 м.
Вид битрейта : Постоянный
Битрейт : 128 Кбит/сек
Каналы : 2 канала
Частота : 48,0 КГц
Метод сжатия : С потерями
Размер потока : 23,3 Мбайт (8%)
Выравнивание : Соединение по промежуткам
Продолжительность промежутка : 40 мс. (1,00 видеокадр)
Время предзагрузки промежутка : 504 мс.
Библиотека кодирования : LAME3.99r
Настройки программы : -m s -V 4 -q 2 -lowpass 17 -b 128
Скриншоты:-Время раздачи: 24/7. До первых 5 скачавших.
Rip by ПЕЧАЛЬ
Яндекс.Метрика
Рейтинг@Mail.ru