[ Сегодня на трекере фрилич! Идет свободное скачивание без начисления Download ]

Юго-западная Америка: От Долины смерти до Великого каньона / America's Southwest: From Grand Canyon To Death Valley (2012) BDRip [H.264/720p]

 

Создавать темы 31-Окт-2014 09:31

-Юго-западная Америка: От Долины смерти до Великого каньона / America's Southwest: From Grand Canyon To Death Valley (2012) BDRip [H.264/720p]- Режиссер / Телекомпания: Аттила Тенки / KSM
Страна: Германия
Год выпуска: 2011
Жанр: Документальный, видовой, природа
Продолжительность: 00:59:29
Перевод: Одноголосый закадровый (профессиональный)
Язык субтитров: русский
Видеокодек: MPEG-4 AVC/H.264
Битрейт видео: ~3 560 Кбит/с
Размер кадра: 1280 x 720
Качество видео: BDRip [720p]
Аудио:
1. [русский] DTS, 6 ch, 1510 Кбит/с
2. [английский] DTS, 6 ch, 1510 Кбит/с
Описание: Дикий Запад Соединенных штатов. Край, окруженный мифами и овеянный легендами. Поражающие воображение пустынные ландшафты и завораживающие пейзажи, где гигантские кактусы устремляются в бездонную синеву неба, а живописные каньоны соседствуют с древними валунами, свидетельствуя о могуществе природы и быстротечности времени.Кладовая полезных ископаемых, где сходятся Аризона, Невада, Калифорния и Юта, ежегодно привлекает миллионы туристов со всего мира, являясь настоящей Меккой для художников и исследователей, авантюристов и искателей приключений.

MediaInfo

Общее
Уникальный идентификатор : 188531646187631973624246695625919272180 (0x8DD5DFD130AC19C7BE650C25576F94F4)
Полное имя : D:\Релизы\America's.Southwest.2012.BDRip.720p.mkv
Формат : Matroska
Версия формата : Version 4 / Version 2
Размер файла : 3,55 Гбайт
Продолжительность : 1 ч. 0 м.
Общий поток : 8441 Кбит/сек
Дата кодирования : UTC 2013-08-07 15:03:01
Программа кодирования : mkvmerge v6.2.0 ('Promised Land') built on Apr 28 2013 12:22:01
Библиотека кодирования : libebml v1.3.0 + libmatroska v1.4.0
Видео
Идентификатор : 1
Формат : AVC
Формат/Информация : Advanced Video Codec
Профиль формата : [url=mailto:[email protected]][email protected][/url]
Параметр CABAC формата : Да
Параметр ReFrames формата : 8 кадров
Идентификатор кодека : V_MPEG4/ISO/AVC
Продолжительность : 1 ч. 0 м.
Битрейт : 5255 Кбит/сек
Ширина : 1280 пикселей
Высота : 720 пикселей
Соотношение сторон : 16:9
Режим частоты кадров : Постоянный
Частота кадров : 23,976 кадра/сек
Цветовое пространство : YUV
Субдискретизация насыщенности : 4:2:0
Битовая глубина : 8 бит
Тип развёртки : Прогрессивная
Бит/(Пиксели*Кадры) : 0.238
Размер потока : 2,21 Гбайт (62%)
Заголовок : Юго-западная Америка 3D: От Долины смерти до Великого каньона / America's Southwest 3D (2012) - realise for HDCLUB
Библиотека кодирования : x264 core 133 r2334 a3ac64b
Настройки программы : cabac=1 / ref=8 / deblock=1:-3:-3 / analyse=0x3:0x113 / me=umh / subme=10 / psy=1 / psy_rd=1.00:0.00 / mixed_ref=1 / me_range=48 / chroma_me=1 / trellis=2 / 8x8dct=1 / cqm=0 / deadzone=21,11 / fast_pskip=1 / chroma_qp_offset=-2 / threads=12 / lookahead_threads=1 / sliced_threads=0 / nr=0 / decimate=1 / interlaced=0 / bluray_compat=0 / constrained_intra=0 / bframes=3 / b_pyramid=2 / b_adapt=2 / b_bias=0 / direct=1 / weightb=1 / open_gop=0 / weightp=2 / keyint=240 / keyint_min=23 / scenecut=40 / intra_refresh=0 / rc_lookahead=65 / rc=crf / mbtree=0 / crf=17.0 / qcomp=0.60 / qpmin=0 / qpmax=69 / qpstep=4 / vbv_maxrate=50000 / vbv_bufsize=62500 / crf_max=0.0 / nal_hrd=none / ip_ratio=1.40 / pb_ratio=1.30 / aq=1:0.80
Язык : English
Default : Да
Forced : Нет
Коэффициенты матрицы : BT.709
Аудио #1
Идентификатор : 2
Формат : DTS
Формат/Информация : Digital Theater Systems
Режим : 16
Параметр Endianness формата : Big
Идентификатор кодека : A_DTS
Продолжительность : 1 ч. 0 м.
Вид битрейта : Постоянный
Битрейт : 1509 Кбит/сек
Каналы : 6 каналов
Расположение каналов : Front: L C R, Side: L R, LFE
Частота : 48,0 КГц
Битовая глубина : 24 бит
Метод сжатия : С потерями
Размер потока : 650 Мбайт (18%)
Заголовок : DTS 5.1 1509 kbps - Профессиональный oдноголосый
Язык : Russian
Default : Да
Forced : Нет
Аудио #2
Идентификатор : 3
Формат : DTS
Формат/Информация : Digital Theater Systems
Режим : 16
Параметр Endianness формата : Big
Идентификатор кодека : A_DTS
Продолжительность : 1 ч. 0 м.
Вид битрейта : Постоянный
Битрейт : 1509 Кбит/сек
Каналы : 6 каналов
Расположение каналов : Front: L C R, Side: L R, LFE
Частота : 48,0 КГц
Битовая глубина : 24 бит
Метод сжатия : С потерями
Размер потока : 650 Мбайт (18%)
Заголовок : DTS 5.1 1509 kbps - English
Язык : English
Default : Нет
Forced : Нет
Текст
Идентификатор : 4
Формат : UTF-8
Идентификатор кодека : S_TEXT/UTF8
Идентификатор кодека/Информация : UTF-8 Plain Text
Заголовок : Subtitles/Captions
Язык : Russian
Default : Да
Forced : Нет
Меню
00:00:00.000 : en:
00:06:33.559 : en:
00:12:24.285 : en:
00:20:04.411 : en:
00:26:55.030 : en:
00:31:59.876 : en:
00:37:36.003 : en:
00:44:41.178 : en:
01:00:14.235 : en:
Скриншоты:
--Пожалуйста, не уходите с раздачи - помогите докачать другим. Если понравился релиз - жмите кнопку "Спасибо"!-Время раздачи: 24 / 7
Яндекс.Метрика
Рейтинг@Mail.ru