Фильм Леонида Млечина. Тайная война. Скальпель и топор (2014.10.30) SATRip

 

Создавать темы 31-Окт-2014 09:13

- Фильм Леонида Млечина. Тайная война. Скальпель и топор (2014.10.30) SATRip - Режиссер / Телекомпания: ТВЦ
Русское название: Фильм Леонида Млечина
Год выпуска: 2014
Жанр: Документальный
Описание:
После 11 сентября 2001 года вице-президент США заявил, что в борьбе с террористами спецслужбы должны снять белые перчатки. На наших глазах Белый дом санкционирует секретные операции. Тайные тюрьмы для боевиков, допросы с пытками, ликвидация террористов. Но может ли это заменить продуманную и взвешенную политику, разработанную с учётом всей сложности современного мира?
Режиссёр: Игорь Максимчук
Ведущий: Леонид Млечин
Текст читал: Любовь Германова и Александр Клюквин
Продолжительность: ~ 00:39:29
Видеокодек: XVID
Битрейт видео: ~1800 kb/s
Размер кадра: 688 x 512
Качество видео: SATRip
Аудиокодек: MP3, 2ch.
Битрейт аудио: 128 kb/s

MediaInfo

Формат : AVI
Формат/Информация : Audio Video Interleave
Размер файла : 547 Мбайт
Продолжительность : 39 м.
Общий поток : 1937 Кбит/сек
Программа кодирования : VirtualDubMod 1.5.10.3 | www.virtualdub-fr.org || (build 2550/release)
Библиотека кодирования : VirtualDubMod build 2550/release
Видео
Идентификатор : 0
Формат : MPEG-4 Visual
Профиль формата : Advanced [email protected]
Параметр BVOP формата : 2
Параметр QPel формата : Нет
Параметр GMC формата : Без точки перехода
Параметр матрицы формата : Default (MPEG)
Идентификатор кодека : XVID
Идентификатор кодека/Подсказка : XviD
Продолжительность : 39 м.
Битрейт : 1800 Кбит/сек
Ширина : 688 пикселей
Высота : 512 пикселей
Соотношение сторон : 4:3
Частота кадров : 25,000 кадров/сек
Цветовое пространство : YUV
Субдискретизация насыщенности : 4:2:0
Битовая глубина : 8 бит
Тип развёртки : Прогрессивная
Метод сжатия : С потерями
Бит/(Пиксели*Кадры) : 0.204
Размер потока : 508 Мбайт (93%)
Библиотека кодирования : XviD 1.2.1 (UTC 2008-12-04)
Аудио
Идентификатор : 1
Формат : MPEG Audio
Версия формата : Version 1
Профиль формата : Layer 3
Идентификатор кодека : 55
Идентификатор кодека/Подсказка : MP3
Продолжительность : 39 м.
Вид битрейта : Постоянный
Битрейт : 128 Кбит/сек
Каналы : 2 канала
Частота : 48,0 КГц
Метод сжатия : С потерями
Размер потока : 36,1 Мбайт (7%)
Выравнивание : Соединение по промежуткам
Продолжительность промежутка : 40 мс. (1,00 видеокадр)
Время предзагрузки промежутка : 504 мс.
Библиотека кодирования : LAME3.99r
Настройки программы : -m s -V 4 -q 2 -lowpass 17 -b 128
Скриншоты:-Время раздачи: 24/7. До первых 5 скачавших.
Rip by Печаль
Яндекс.Метрика
Рейтинг@Mail.ru