В Октябре 44-го. Освобождение Украины (2014) SATRip

 

Создавать темы 31-Окт-2014 09:03

-В Октябре 44-го. Освобождение Украины (2014) SATRip- Режиссер / Телекомпания: Россия
Год выпуска: 2014
Жанр: Документальный, война, история
Описание:
Это было одно из самых грандиозных сражений Второй мировой войны. Оно длилось больше двух лет и охватило огромную территорию – от Донбасса до Закарпатья и от лесов и болот Полесья до Черного моря. В нем участвовали огромные силы – более четырех миллионов человек с обеих сторон. Это была битва за Украину, которая закончилась осенью 1944 года. Битва за Украину – одна из наиболее героических и драматических страниц в истории Великой Отечественной войны. Как советские войска смогли форсировать Днепр и сокрушить "Восточный вал" Гитлера, который он сам считал неприступным? Как Красная Армия провела на Украине операцию, которую затем стали называть "вторым Сталинградом"? В каких условиях жили и боролись партизаны в одесских катакомбах? Наша съемочная группа объехала почти всю Украину и выслушала воспоминания тех, кто освобождал ее во время войны.
Доп. информация: SATRip by alf62

Продолжительность: 00:44:01
Качество видео: SATRip
Видеокодек: DivX 5
Битрейт видео: ~1597 kb/s
Размер кадра: 720x400
Аудиокодек: AC3
Битрейт аудио: 192 kb/s (2 канала, stereo) CBR

MediaInfo

V.Oktjabre.44.Osvobozhdenie.Ukrainy.2014.DivX.SATRip.alf62.avi
Формат : AVI
Формат/Информация : Audio Video Interleave
Размер файла : 566 Мбайт
Продолжительность : 44 м.
Общий поток : 1799 Кбит/сек
Программа кодирования : VirtualDubMod 1.5.10.3 | (build 2550/release)
Библиотека кодирования : VirtualDubMod build 2550/release
Видео
Идентификатор : 0
Формат : MPEG-4 Visual
Профиль формата : Advanced [email protected]
Параметр BVOP формата : 2
Параметр QPel формата : Нет
Параметр GMC формата : Без точки перехода
Параметр матрицы формата : Default (MPEG)
Идентификатор кодека : DX50
Идентификатор кодека/Подсказка : DivX 5
Продолжительность : 44 м.
Битрейт : 1597 Кбит/сек
Ширина : 720 пикселей
Высота : 400 пикселей
Соотношение сторон : 16:9
Частота кадров : 25,000 кадров/сек
Цветовое пространство : YUV
Субдискретизация насыщенности : 4:2:0
Битовая глубина : 8 бит
Тип развёртки : Прогрессивная
Метод сжатия : С потерями
Бит/(Пиксели*Кадры) : 0.222
Размер потока : 503 Мбайт (89%)
Библиотека кодирования : XviD 73
Аудио
Идентификатор : 1
Формат : AC-3
Формат/Информация : Audio Coding 3
Расширение режима : CM (complete main)
Параметр Endianness формата : Big
Идентификатор кодека : 2000
Продолжительность : 44 м.
Вид битрейта : Постоянный
Битрейт : 192 Кбит/сек
Каналы : 2 канала
Расположение каналов : Front: L R
Частота : 48,0 КГц
Битовая глубина : 16 бит
Метод сжатия : С потерями
Размер потока : 60,5 Мбайт (11%)
Выравнивание : Разделение по промежуткам
Продолжительность промежутка : 40 мс. (1,00 видеокадр)
Время предзагрузки промежутка : 500 мс.
Скриншоты:
-Время раздачи: 24/7 (круглосуточно)
Яндекс.Метрика
Рейтинг@Mail.ru