[ Сегодня на трекере фрилич! Идет свободное скачивание без начисления Download ]

Фото за час / One Hour Photo (2002)/Марк Романек /триллер, драма/ BDRip 1080p

 

Создавать темы 13-Ноя-2013 16:11

Фото за час / One Hour Photo (2002) BDRip 1080p
Страна: США
Жанр: триллер, драма
Год выпуска: 2002
Продолжительность: 01:36:01
Перевод: Профессиональный (многоголосый закадровый)
Cубтитры: русские, английские [SDH]
Оригинальная аудиодорожка: английский
Режиссер: Марк Романек / Mark Romanek
В ролях: Робин Уильямс, Конни Нилсен, Майкл Вартан, Дилан Смит, Эрин Дэниелс, Пол Х. Ким, Ли Гарлингтон, Гари Коул, Мэрион Кэлверт, Дэвид Морлэнд
Описание: Сай Перриш — одинокий пожилой начальник фотолаборатории. В его жизни нет ничего, кроме работы. Единственная отрада в жизни Сая — семья Йоркин.
Проявляя для них фотографии на протяжении многих лет, Сай привязывается к этой семье, и в особенности к маленькому Джейкобу. Но привязанность эта заходит слишком далеко…
Тип релиза: BDRip 1080p
Контейнер: MKV
Видео: H264 / NTSC 16:9 / 1920x1040 (1,85:1) / 19032 kbps / 23,976 kbps / 0.398 bit/pixel / [email protected]
Аудио 1: Russian / AC3 / 48 kHz / 5.1 Ch / 448 kbps / 16 bit / MVO
Аудио 2: English / DTS / 48 kHz / 5.1 Ch / 1510 kbps / 24 bit / Original
Формат субтитров: softsub (SRT)
Навигация по главам: есть

MediaInfo

Общее
Уникальный идентификатор : 177027890665324841066984345861123833717 (0x852E54E14619CFDD91AD4228DBD17F75)
Полное имя : W:BDRip 1080pOne Hour Photo.2002.BDRip.1080p.mkv
Формат : Matroska
Версия формата : Version 4 / Version 2
Размер файла : 14,1 Гбайт
Продолжительность : 1 ч. 36 м.
Общий поток : 21,0 Мбит/сек
Дата кодирования : UTC 2013-05-18 07:36:27
Программа кодирования : mkvmerge v6.2.0 ('Promised Land') built on Apr 28 2013 12:22:01
Библиотека кодирования : libebml v1.3.0 + libmatroska v1.4.0
Видео
Идентификатор : 1
Формат : AVC
Формат/Информация : Advanced Video Codec
Профиль формата : [email protected]
Параметр CABAC формата : Да
Параметр ReFrames формата : 4 кадра
Идентификатор кодека : V_MPEG4/ISO/AVC
Продолжительность : 1 ч. 36 м.
Битрейт : 19,0 Мбит/сек
Ширина : 1920 пикселей
Высота : 1040 пикселей
Соотношение сторон : 1,85:1
Режим частоты кадров : Постоянный
Частота кадров : 23,976 кадра/сек
Цветовое пространство : YUV
Субдискретизация насыщенности : 4:2:0
Битовая глубина : 8 бит
Тип развёртки : Прогрессивная
Бит/(Пиксели*Кадры) : 0.398
Размер потока : 12,5 Гбайт (89%)
Библиотека кодирования : x264 core 132 r2310 76a5c3a
Настройки программы : cabac=1 / ref=4 / deblock=1:-3:-3 / analyse=0x3:0x113 / me=umh / subme=11 / psy=1 / psy_rd=1.10:0.20 / mixed_ref=1 / me_range=64 / chroma_me=1 / trellis=2 / 8x8dct=1 / cqm=0 / deadzone=21,11 / fast_pskip=1 / chroma_qp_offset=-3 / threads=18 / lookahead_threads=3 / sliced_threads=0 / nr=0 / decimate=0 / interlaced=0 / bluray_compat=0 / constrained_intra=0 / bframes=9 / b_pyramid=2 / b_adapt=2 / b_bias=0 / direct=3 / weightb=1 / open_gop=0 / weightp=2 / keyint=250 / keyint_min=25 / scenecut=40 / intra_refresh=0 / rc_lookahead=100 / rc=2pass / mbtree=1 / bitrate=19032 / ratetol=1.0 / qcomp=0.65 / qpmin=0 / qpmax=69 / qpstep=4 / cplxblur=20.0 / qblur=0.5 / vbv_maxrate=50000 / vbv_bufsize=40000 / nal_hrd=none / ip_ratio=1.30 / aq=1:1.00
Язык : English
Default : Да
Forced : Нет
Аудио #1
Идентификатор : 2
Формат : AC-3
Формат/Информация : Audio Coding 3
Расширение режима : CM (complete main)
Параметр Endianness формата : Big
Идентификатор кодека : A_AC3
Продолжительность : 1 ч. 36 м.
Вид битрейта : Постоянный
Битрейт : 448 Кбит/сек
Каналы : 6 каналов
Расположение каналов : Front: L C R, Side: L R, LFE
Частота : 48,0 КГц
Битовая глубина : 16 бит
Метод сжатия : С потерями
Размер потока : 308 Мбайт (2%)
Заголовок : MVO
Язык : Russian
Default : Да
Forced : Нет
Аудио #2
Идентификатор : 3
Формат : DTS
Формат/Информация : Digital Theater Systems
Идентификатор кодека : A_DTS
Продолжительность : 1 ч. 36 м.
Вид битрейта : Постоянный
Битрейт : 1510 Кбит/сек
Каналы : 6 каналов
Расположение каналов : Front: L C R, Side: L R, LFE
Частота : 48,0 КГц
Битовая глубина : 24 бит
Метод сжатия : С потерями
Размер потока : 1,01 Гбайт (7%)
Заголовок : Original
Язык : English
Default : Нет
Forced : Нет
Текст #1
Идентификатор : 4
Формат : UTF-8
Идентификатор кодека : S_TEXT/UTF8
Идентификатор кодека/Информация : UTF-8 Plain Text
Заголовок : RUS
Язык : Russian
Default : Нет
Forced : Нет
Текст #2
Идентификатор : 5
Формат : UTF-8
Идентификатор кодека : S_TEXT/UTF8
Идентификатор кодека/Информация : UTF-8 Plain Text
Заголовок : Original [SDH]
Язык : English
Default : Нет
Forced : Нет
Меню
00:00:00.000 : en:One Question
00:03:08.563 : en:Family Photos
00:04:24.890 : en:Sy the Photo Guy
00:06:46.114 : en:Beautiful Prints
00:11:17.385 : en:Favorite Uncle
00:13:02.448 : en:Good Thoughts
00:16:23.858 : en:Argument
00:17:49.277 : en:The Person You Least Suspect
00:19:36.342 : en:Monday
00:22:13.040 : en:Christmas Fantasy
00:24:18.957 : en:In the Flesh
00:27:25.686 : en:The Flow of Time
00:29:00.948 : en:Crossing the Threshold
00:33:21.666 : en:Soccer Practice
00:36:57.882 : en:Food Court
00:41:25.566 : en:Discrepancies
00:45:13.044 : en:Sy Are You All Right?
00:49:40.186 : en:Discovery
00:51:48.897 : en:Leaving Savmart
00:55:32.829 : en:What's Wrong with These People?
00:58:05.482 : en:No One Is Secure
00:59:04.249 : en:Sy's Dream
01:00:43.265 : en:A Hunting Term
01:04:28.615 : en:Threat Management
01:06:11.384 : en:Search Warrant
01:07:32.048 : en:Room Service
01:12:19.794 : en:Room 511
01:16:03.517 : en:Room 519
01:18:20.446 : en:Pursuit
01:22:23.939 : en:Reunion
01:24:04.289 : en:Sy's Confession
01:29:18.353 : en:End Titles

Скриншоты

Яндекс.Метрика
Рейтинг@Mail.ru