Discovery: Почему? Вопросы мироздания. Существует ли создатель? / Curiosity. Did God Create The Universe? (2011)/Discovery Channel/Документальный, научно-популярный, расследования/ HDTVRip [H.264/720p-LQ] [Сезон 1, серия 1]

 

Создавать темы 13-Ноя-2013 03:51

Discovery: Почему? Вопросы мироздания. Существует ли создатель? / Curiosity. Did God Create The Universe? (2011) HDTVRip [H.264/720p-LQ] [Сезон 1, серия 1]- Режиссер / Телекомпания: Discovery Channel
Страна: США
Год выпуска: 2011
Жанр: Документальный, научно-популярный, расследования
Описание: Одних интересует техника, других – география, третьих – астрономия, но есть вопросы, которые волнуют практически каждого человека независимо от возраста, образования и увлечений. Discovery Channel вместе со зрителями будет искать на них ответы в самом масштабном проекте в истории канала, который выходит в эфир под названием "Почему? Вопросы мироздания". Есть ли разумная жизнь на других планетах? Почему обычные люди могут превращаться в жестоких монстров? Как появилось все сущее?
В этом фильме: Основной вопрос, который задает Стивен Хокинг - существует ли Создатель? Кем, когда и как была создана наша Вселенная? Как она менялась со временем и как со временем менялись наши представления о ней?
Продолжительность: 00:42:27
Перевод: Одноголосый закадровый (профессиональный, НТВ Плюс)
Формат файла: MKV
Видеокодек: MPEG-4 AVC/H.264
Битрейт видео: ~2 625 Кбит/с
Размер кадра: 1280 x 720
Качество видео: HDTVRip [720p-LQ]
Аудио:
1. [русский] MP3, 2 ch, 256 Кбит/с
2. [english] AC3, 6 ch, 384 Кбит/с

MediaInfo

General
Unique ID : 199262167172379068081622595057774578275 (0x95E87F59268451EDAD8270841DB54A63)
Complete name : I:\Discovery.Curiosity.s01.ep01.Did.God.Create.The.Universe.HDTVRip.720p.mkv
Format : Matroska
Format version : Version 2
File size : 1 011 MiB
Duration : 42mn 27s
Overall bit rate : 3 330 Kbps
Encoded date : UTC 2012-04-19 10:53:29
Writing application : mkvmerge v5.4.0 ('Piper') built on Mar 10 2012 13:34:39
Writing library : libebml v1.2.3 + libmatroska v1.3.0
Video
ID : 1
Format : AVC
Format/Info : Advanced Video Codec
Format profile : [url=mailto:[email protected]][email protected][/url]
Format settings, CABAC : Yes
Format settings, ReFrames : 5 frames
Codec ID : V_MPEG4/ISO/AVC
Duration : 42mn 27s
Bit rate : 2 623 Kbps
Width : 1 280 pixels
Height : 714 pixels
Display aspect ratio : 16:9
Frame rate mode : Constant
Frame rate : 25.000 fps
Color space : YUV
Chroma subsampling : 4:2:0
Bit depth : 8 bits
Scan type : Progressive
Bits/(Pixel*Frame) : 0.115
Stream size : 797 MiB (79%)
Writing library : x264 core 116 r2044 392e762
Encoding settings : cabac=1 / ref=5 / deblock=1:0:0 / analyse=0x3:0x113 / me=umh / subme=8 / psy=1 / psy_rd=1.00:0.00 / mixed_ref=1 / me_range=16 / chroma_me=1 / trellis=1 / 8x8dct=1 / cqm=0 / deadzone=21,11 / fast_pskip=1 / chroma_qp_offset=-2 / threads=12 / sliced_threads=0 / nr=0 / decimate=1 / interlaced=0 / bluray_compat=0 / constrained_intra=0 / bframes=3 / b_pyramid=2 / b_adapt=2 / b_bias=0 / direct=3 / weightb=1 / open_gop=0 / weightp=2 / keyint=250 / keyint_min=25 / scenecut=40 / intra_refresh=0 / rc_lookahead=50 / rc=crf / mbtree=1 / crf=20.0 / qcomp=0.60 / qpmin=0 / qpmax=69 / qpstep=4 / ip_ratio=1.40 / aq=1:1.00
Language : English
Default : No
Forced : No
Audio #1
ID : 2
Format : MPEG Audio
Format version : Version 1
Format profile : Layer 3
Muxing mode : Header stripping
Codec ID : A_MPEG/L3
Codec ID/Hint : MP3
Duration : 42mn 27s
Bit rate mode : Constant
Bit rate : 256 Kbps
Channel(s) : 2 channels
Sampling rate : 44.1 KHz
Compression mode : Lossy
Stream size : 77.8 MiB (8%)
Language : Russian
Default : No
Forced : No
Audio #2
ID : 3
Format : AC-3
Format/Info : Audio Coding 3
Mode extension : CM (complete main)
Format settings, Endianness : Big
Muxing mode : Header stripping
Codec ID : A_AC3
Duration : 42mn 27s
Bit rate mode : Constant
Bit rate : 384 Kbps
Channel(s) : 6 channels
Channel positions : Front: L C R, Side: L R, LFE
Sampling rate : 48.0 KHz
Bit depth : 16 bits
Compression mode : Lossy
Stream size : 117 MiB (12%)
Language : English
Default : No
Forced : No

Яндекс.Метрика
Рейтинг@Mail.ru