Барбоскины (Дмитрий Яковенко)(2012-2014,Мультсериал, Анимация, Детский) SATRip/WEBRip (Серии 101-142) [Обновляемая]

 

Создавать темы 26-Окт-2014 13:56

- Барбоскины (2012-2014) SATRip/WEBRip - Режиссер / Телекомпания: Россия
Русское название: Барбоскины
Год выпуска: 2012-2014
Жанр: Мультсериал, Анимация, Детский
Описание:
Мама, папа и… пятеро щенят. У Барбоскиных все, как у людей. Папа свободное время проводит за компьютером, дочери увлекаются модой и слушают Жанну Киску, а сыновья играют в футбол и мечтают о Нобелевской премии.
Роли озвучивали: Елена Шульман, Ксения Бржезовская, Олег Куликович, Михаил Черняк, Екатерина Гороховская, Мария Цветкова.
Режиссёр: Дмитрий Яковенко
Продолжительность: Каждая серия ~ 00:05:00
Видеокодек: XVID
Битрейт видео: ~2299 kb/s
Размер кадра: 720 х 528 / 720 х 544
Качество видео: SATRip
Аудиокодек: AC-3, 2ch.
Битрейт аудио: 192 kb/s

MediaInfo

Формат : AVI
Формат/Информация : Audio Video Interleave
Размер файла : 80,7 Мбайт
Продолжительность : 4 м. 30 с.
Общий поток : 2501 Кбит/сек
Режиссёр : SATRip by Thunder
Программа кодирования : VirtualDubMod 1.5.10.3 | www.virtualdub-fr.org || (build 2550/release)
Видео
Идентификатор : 0
Формат : MPEG-4 Visual
Профиль формата : Advanced [email protected]
Параметр BVOP формата : 2
Параметр QPel формата : Нет
Параметр GMC формата : Без точки перехода
Параметр матрицы формата : Default (H.263)
Идентификатор кодека : XVID
Идентификатор кодека/Подсказка : XviD
Продолжительность : 4 м. 30 с.
Битрейт : 2299 Кбит/сек
Ширина : 720 пикселей
Высота : 528 пикселей
Соотношение сторон : 4:3
Частота кадров : 25,000 кадров/сек
Цветовое пространство : YUV
Субдискретизация насыщенности : 4:2:0
Битовая глубина : 8 бит
Тип развёртки : Прогрессивная
Метод сжатия : С потерями
Бит/(Пиксели*Кадры) : 0.242
Размер потока : 74,2 Мбайт (92%)
Библиотека кодирования : XviD 1.2.1 (UTC 2008-12-04)
Аудио
Идентификатор : 1
Формат : AC-3
Формат/Информация : Audio Coding 3
Расширение режима : CM (complete main)
Идентификатор кодека : 2000
Продолжительность : 4 м. 30 с.
Вид битрейта : Постоянный
Битрейт : 192 Кбит/сек
Каналы : 2 канала
Расположение каналов : Front: L R
Частота : 48,0 КГц
Битовая глубина : 16 бит
Метод сжатия : С потерями
Размер потока : 6,19 Мбайт (8%)
Выравнивание : Разделение по промежуткам
Продолжительность промежутка : 40 мс. (1,00 видеокадр)
Время предзагрузки промежутка : 500 мс.

Список серий

101. Любимый брат
102. Бал
103. В эфире - новости!
104. Конкурс приколов
105. Фальшивый вирус
106. Пчёлоптицепёс
107. Глобальное потепление
108. Космический шлем
109. Бум-бум, шака-така!
110. Элементарная физика
111. Спорное искусство
112. Симулянт
113. Необычная ночь
114. Творческий поиск
115. Небольшая хитрость
116. Кулинарный шпионаж
117. Самый лучший дед
118. Саблезубая мышь
119. Острый сюжет
120. Фигурист
121. Семейный секрет
122. Маскировка
123. Деду Морозу до востребования
124. Снежный Пёс
125. Закаляйся
126. Сила трения
127. Серьёзная подготовка
128. Морозная пластинка
129. Аномалия
130. Весомый вклад
131. Вперед в прошлое - WEBRip
132. 33 Ген
133. Достоверные эмоции
134. Популярная психология - WEBRip
135. День уступок
136. Аленький Цветочек - WEBRip
137. Билет на юг
138. Письмо
139. Сценическая речь
140. Как в кино
141. Пятёрка по физкультуре
142. Воздухоплаватель
Скриншоты:
Яндекс.Метрика
Рейтинг@Mail.ru