Их Италия (Валерий Спирин) [2012 г., документальный, приключения, SATRip, 480p]

 

Создавать темы 23-Окт-2014 21:20

-Их Италия-- Производство: Россия, Италия
Режиссер: Валерий Спирин
Жанр: документальный, приключения
Год выпуска: 2012 г.
Продолжительность: 00:45:00
Российская премьера: 1 июля 2012
Дата выхода DVD: 9 августа 2012
В ролях: Владимир Познер и Иван Ургант-Описание: «Их Италия» — это третий фильм-путешествие, размышления и откровения главных путешественников российского Первого канала Владимира Познера и Ивана Урганта посященные Италии.
В каждой из 10 серий ведущие будут встречаться за обеденным столом с известными итальянцами — артистами, музыкантами, политиками и т. д. Звёздные участники телепроекта расскажут авторам о главных достопримечательностях Италии, а также о самых значимых местных блюдах и напитках. После этого Познер и Ургант посетят названные места, попробуют эти блюда и поделятся своими со зрителями собственными впечатлениями.-КиноПоиск
Качество видео: SATRip
Контейнер: AVI
Стандарт разрешения: 480p
Видео кодек: XviD
Аудио кодек: MP3
Видео: 704x400, ~1900 Kbps, 25.000 fps
Аудио: 128 Kbps, 2 channels, 48.0 KHz
Cубтитры: отсутствуют

Награды

Рейтинг на Кинопоиске 8.046 (853)

Media Info

Общее
Полное имя : D:\downloads\Их Италия [pirat.ca]\Их Италия 01.avi
Формат : AVI
Формат/Информация : Audio Video Interleave
Размер файла : 623 Мбайт
Продолжительность : 44 м.
Общий поток : 1938 Кбит/сек
Программа кодирования : VirtualDubMod 1.5.10.3 | www.virtualdub-fr.org || (build 2550/release)
Библиотека кодирования : VirtualDubMod build 2550/release
Видео
Идентификатор : 0
Формат : MPEG-4 Visual
Профиль формата : Advanced [email protected]
Параметр BVOP формата : 2
Параметр QPel формата : Нет
Параметр GMC формата : Без точки перехода
Параметр матрицы формата : Выборочная
Идентификатор кодека : DX50
Идентификатор кодека/Подсказка : DivX 5
Продолжительность : 44 м.
Битрейт : 1800 Кбит/сек
Ширина : 704 пикселя
Высота : 400 пикселей
Соотношение сторон : 16:9
Частота кадров : 25,000 кадров/сек
Цветовое пространство : YUV
Субдискретизация насыщенности : 4:2:0
Битовая глубина : 8 бит
Тип развёртки : Прогрессивная
Метод сжатия : С потерями
Бит/(Пиксели*Кадры) : 0.256
Размер потока : 579 Мбайт (93%)
Библиотека кодирования : XviD 65
Аудио
Идентификатор : 1
Формат : MPEG Audio
Версия формата : Version 1
Профиль формата : Layer 3
Идентификатор кодека : 55
Идентификатор кодека/Подсказка : MP3
Продолжительность : 44 м.
Вид битрейта : Постоянный
Битрейт : 128 Кбит/сек
Каналы : 2 канала
Частота : 48,0 КГц
Метод сжатия : С потерями
Размер потока : 41,2 Мбайт (7%)
Выравнивание : Соединение по промежуткам
Продолжительность промежутка : 40 мс. (1,00 видеокадр)
Время предзагрузки промежутка : 504 мс.
Библиотека кодирования : LAME3.99r
Настройки программы : -m s -V 4 -q 2 -lowpass 17 -b 128

Скриншоты

Яндекс.Метрика
Рейтинг@Mail.ru