Капризы природы с Дэвидом Аттенборо / Курьезы природы / Attenborough's Natural Curiosities (Сезон 1 Эпизоды 1-2 из 5) (David Attenborough / Дэвид Аттенборо) [2012, Документальный, живая природа, WEB-DLrip] (2xVO CSS, ZooTV)

 

Создавать темы 23-Окт-2014 06:16

Капризы природы с Дэвидом Аттенборо / Курьезы природы / Attenborough's Natural Curiosities
Сезон 1 Эпизоды 1-2 из 5
Дата/Год выпуска: 2012
Страна: Великобритания
Ведущий: David Attenborough / Дэвид Аттенборо
Телеканал: Eden
Жанр: Документальный, живая природа
Продолжительность: 5 серий по ~20 минут
Перевод 1: Одноголосый закадровый: CSS
Перевод 2: Одноголосый закадровый: ZooTV
Описание: Мир полон удивительных существ. Природа некоторых из них кажется невероятной. Отдельные животные своей необычной биологией привлекают особое внимание. Какие-то известны уже несколько веков, другие обнаружены совсем недавно.
В этой программе сэр Дэвид Аттенборо расскажет, почему они считаются капризами природы.

Качество видео: WEB-DLrip
Контейнер: AVI
Видео кодек: XviD
Аудио кодек: MP3
Видео: Xvid 720x400 25fps ~1 502 Kbps ~0.21 bpf
Аудио 1: MP3 48000Hz stereo 128kbps
Аудио 2: MP3 48000Hz stereo 128kbps
Cубтитры: отсутствуют

Ориентировочный график пополнения: 1 серия в неделю
Раздача в HD 720pТоррент обновлен 22.10.2014 - добавлена вторая серия

Список серий

1. Растянутые до предела / Длина как преимущество / Stretched to the Limit
В этом эпизоде речь пойдет о двух существах, обычные части тела которых имеют необычные размеры.
Удивительный язык хамелеона позволяет ловить добычу с большого расстояния, а длинная шея жирафа дает возможность дотягиваться до самых верхушек деревьев.
2. Рельность или мистификация? / Феномен или подлог? / A Curious Hoax?
Как получилось, что два небольших существа с разных концов Земли смогли разрушить репутацию известных ученых и изменить наше понимание эволюции?
3. Young Wrinklies
4. A Curious Twist
5. Seeing the Pattern

Над релизом работали

Перевод: Евгений "UrbanVampire" Шаров, Анна "САВА" Марченко
Редактура: Анна "САВА" Марченко
Научный консультант: Дарья "Данька" Губкина
Закадровый текст: Евгений "UrbanVampire" Шаров
WEB-DLrip, адаптация звука: CSS

Media Info

General
Complete name : D:\_DVDrip\Attenboroughs Natural Curiosities\Готовые\Attenboroughs.Natural.Curiosities.s01.WEB-DLrip.2xVO.CSS.ZooTV\Attenboroughs.Natural.Curiosities.s01e01.WEB-DLrip.2xVO.CSS.ZooTV.avi
Format : AVI
Format/Info : Audio Video Interleave
File size : 278 MiB
Duration : 21mn 54s
Overall bit rate : 1 772 Kbps
Movie name : Attenborough's Natural Curiosities s01e01 Stretched to the Limit
Law rating : Unrated
Writing application : VirtualDubMod 1.5.10.2 (build 2540/release) VirtualDubMod build 2540/release
Original source form/Name : Movie
Copyright : CSS
Video
ID : 0
Format : MPEG-4 Visual
Format profile : Advanced [email protected]
Format settings, BVOP : Yes
Format settings, QPel : No
Format settings, GMC : No warppoints
Format settings, Matrix : Default (H.263)
Codec ID : XVID
Codec ID/Hint : XviD
Duration : 21mn 54s
Bit rate : 1 502 Kbps
Width : 720 pixels
Height : 400 pixels
Display aspect ratio : 16:9
Frame rate : 25.000 fps
Color space : YUV
Chroma subsampling : 4:2:0
Bit depth : 8 bits
Scan type : Progressive
Compression mode : Lossy
Bits/(Pixel*Frame) : 0.209
Stream size : 235 MiB (85%)
Writing library : XviD 1.2.1 (UTC 2008-12-04)
Audio #1
ID : 1
Format : MPEG Audio
Format version : Version 1
Format profile : Layer 3
Mode : Joint stereo
Mode extension : MS Stereo
Codec ID : 55
Codec ID/Hint : MP3
Duration : 21mn 54s
Bit rate mode : Constant
Bit rate : 128 Kbps
Channel count : 2 channels
Sampling rate : 48.0 KHz
Compression mode : Lossy
Stream size : 20.1 MiB (7%)
Alignment : Aligned on interleaves
Interleave, duration : 40 ms (1.00 video frame)
Interleave, preload duration : 504 ms
Writing library : LAME3.98.2
Language : Undefined
Audio #2
ID : 2
Format : MPEG Audio
Format version : Version 1
Format profile : Layer 3
Mode : Joint stereo
Mode extension : MS Stereo
Codec ID : 55
Codec ID/Hint : MP3
Duration : 21mn 49s
Bit rate mode : Constant
Bit rate : 128 Kbps
Channel count : 2 channels
Sampling rate : 48.0 KHz
Compression mode : Lossy
Stream size : 20.0 MiB (7%)
Alignment : Aligned on interleaves
Interleave, duration : 40 ms (1.00 video frame)
Interleave, preload duration : 504 ms
Writing library : LAME3.98.2
Яндекс.Метрика
Рейтинг@Mail.ru