The Von Bondies - Live At South by Southwest [2009, garage rock, post punk, HDTV 1080р]

 

Создавать темы 12-Ноя-2013 17:35

The Von Bondies - Live At South by Southwest
Жанр: garage rock, post punk
Продолжительность: 00:51:24
Год выпуска: 2009
Описание:
The Von Bondies - Live At South by Southwest (2009)
= ТРЕКЛИСТ =
= Been Swank =
= This Is Our Perfect Crime =
= Going Down =
= The Chancer =
= Pawn Shoppe Heart =
= Not That Social =
= Shut Your Month =
= The Fever =
= Pale Bride =
= No Regrets =
= She's Dead To Me =
= C'Mon C'Mon =
= It Came From Japan =
= Rock'n Roll Nurse =
Качество: HDTVRip 1080p
Контейнер: MPEG-4
Видео кодек: H.264
Аудио кодек: AAC
Видео: 1920x1080 (16:9), 25.00 fps, AVC, 9049 Кбит, 0.173 bits/pixel
Аудио: 48.0 KHz, AAC-LC, 2 ch, stereo, 128-384 Kbps VBR

Отчёт MediaInfo / BDInfo

Полное имя : G:\DVD\The Von Bondies - LASS (2009)\The Von Bondies - Live At South by Southwest.mp4Формат : MPEG-4Профиль формата : Base Media / Version 2Идентификатор кодека : mp42Размер файла : 3,39 ГбайтПродолжительность : 51 м.Общий поток : 9435 Кбит/секДата кодирования : UTC 2013-11-12 08:09:49Дата пометки : UTC 2013-11-12 08:09:49
ВидеоИдентификатор : 2Формат : AVCФормат/Информация : Advanced Video CodecПрофиль формата : [email protected] CABAC формата : ДаПараметр ReFrames формата : 2 кадраИдентификатор кодека : avc1Идентификатор кодека/Информация : Advanced Video CodingПродолжительность : 51 м.Вид битрейта : ПеременныйБитрейт : 9049 Кбит/секМаксимальный битрейт : 9001 Кбит/секШирина : 1920 пикселейВысота : 1088 пикселейВысота оригинала : 1080 пикселейСоотношение сторон : 16:9Соотношение сторон в оригинале : 16:9Режим частоты кадров : ПостоянныйЧастота кадров : 25,000 кадров/секЧастота кадров в оригинале : 12,500 кадров/секЦветовое пространство : YUVСубдискретизация насыщенности : 4:2:0Битовая глубина : 8 битТип развёртки : ПрогрессивнаяБит/(Пиксели*Кадры) : 0.173Размер потока : 3,25 Гбайт (96%)Язык : EnglishДата кодирования : UTC 2013-11-12 08:09:49Дата пометки : UTC 2013-11-12 08:09:49
АудиоИдентификатор : 1Формат : AACФормат/Информация : Advanced Audio CodecПрофиль формата : LCИдентификатор кодека : 40Продолжительность : 51 м.Вид битрейта : ПостоянныйБитрейт : 384 Кбит/секНоминальный битрейт : 128 Кбит/секКаналы : 2 каналаРасположение каналов : Front: L RЧастота : 48,0 КГцМетод сжатия : С потерямиРазмер потока : 141 Мбайт (4%)Язык : EnglishДата кодирования : UTC 2013-11-12 08:09:49Дата пометки : UTC 2013-11-12 08:09:49
------Специально для vladios13

Создавать темы 12-Ноя-2013 17:36 (спустя 1 минута)

DDGroup, Спасибо тебе огромное!
Яндекс.Метрика
Рейтинг@Mail.ru