Вечерний Ургант. Сезон №6. Выпуск №28 (2014.10.16) SATRip

 

Создавать темы 17-Окт-2014 15:19

- Вечерний Ургант. Сезон №6. Выпуск №28 (2014.10.16) SATRip - Режиссер / Телекомпания: Первый канал
Русское название: Вечерний Ургант
Год выпуска: 2014
Жанр: ТВ-Шоу
Описание:
Каждый вечер с понедельника по четверг за полчаса до полуночи Иван Ургант провожает этот день вместе с вами. С хорошим настроением, хорошей музыкой и теми людьми, которые ему интересны. "Вечерний Ургант" с понедельника по четверг
Ведущий: Иван Ургант
Гости: Станислав Говорухин, Екатерина Гусева, Антон Долин и "ФРУКТЫ"
Продолжительность: ~ 00:29:49
Видеокодек: DivX
Битрейт видео: ~1800 kb/s
Размер кадра: 720 x 448
Качество видео: SATRip
Аудиокодек: MP3, 2ch.
Битрейт аудио: 192 kb/s

MediaInfo

Формат : AVI
Формат/Информация : Audio Video Interleave
Размер файла : 428 Мбайт
Продолжительность : 29 м.
Общий поток : 2006 Кбит/сек
Видео
Идентификатор : 0
Формат : MPEG-4 Visual
Параметр BVOP формата : 1
Параметр QPel формата : Нет
Параметр GMC формата : Без точки перехода
Параметр матрицы формата : Default (H.263)
Режим смешивания : Сжатый битовый поток
Идентификатор кодека : DX50
Идентификатор кодека/Подсказка : DivX 5
Продолжительность : 29 м.
Битрейт : 1805 Кбит/сек
Ширина : 720 пикселей
Высота : 448 пикселей
Соотношение сторон : 1,607
Частота кадров : 25,000 кадров/сек
Цветовое пространство : YUV
Субдискретизация насыщенности : 4:2:0
Битовая глубина : 8 бит
Тип развёртки : Прогрессивная
Метод сжатия : С потерями
Бит/(Пиксели*Кадры) : 0.224
Размер потока : 385 Мбайт (90%)
Заголовок : Video
Библиотека кодирования : DivX 3013
Аудио
Идентификатор : 1
Формат : MPEG Audio
Версия формата : Version 1
Профиль формата : Layer 3
Идентификатор кодека : 55
Идентификатор кодека/Подсказка : MP3
Продолжительность : 29 м.
Вид битрейта : Постоянный
Битрейт : 192 Кбит/сек
Каналы : 2 канала
Частота : 48,0 КГц
Метод сжатия : С потерями
Размер потока : 41,0 Мбайт (10%)
Выравнивание : Разделение по промежуткам
Продолжительность промежутка : 40 мс. (1,00 видеокадр)
Время предзагрузки промежутка : 500 мс.
Заголовок : Audio
-Скриншоты:--Время раздачи: 24/7. До первых 5 скачавших.
Rip by TRAY_MAX
Яндекс.Метрика
Рейтинг@Mail.ru